Rihanna - Only Girl [In The World] (MTVIDOL-1080i-DD2.0-Djodjara)-HDMania

Discussion in 'MTV IDOL' started by Djodjara, May 28, 2015.

  1. Djodjara

    Djodjara Gwen Fan Capper

    Joined:
    Sep 6, 2014
    Messages:
    712
    Likes Received:
    1,167
    Rihanna - Only Girl (In The World) (MTV Idol-1080i-Djodjara)-HDMania

    [​IMG]
    [​IMG]

    General:
    ID : 1 (0x1)
    Format : MPEG-TS
    File size : 118 MiB
    Duration : 4mn 6s
    Overall bit rate mode : Variable
    Overall bit rate : 4 006 Kbps

    Video:
    ID : 310 (0x136)
    Menu ID : 1 (0x1)
    Format : AVC
    Format/Info : Advanced Video Codec
    Format profile : [email protected]
    Format settings, CABAC : Yes
    Format settings, ReFrames : 4 frames
    Codec ID : 27
    Duration : 4mn 6s
    Bit rate : 3 614 Kbps
    Width : 1 920 pixels
    Height : 1 080 pixels
    Display aspect ratio : 16:9
    Frame rate : 25.000 fps
    Standard : Component
    Color space : YUV
    Chroma subsampling : 4:2:0
    Bit depth : 8 bits
    Scan type : MBAFF
    Scan order : Top Field First
    Bits/(Pixel*Frame) : 0.070
    Stream size : 106 MiB (90%)
    Color primaries : BT.709
    Transfer characteristics : BT.709
    Matrix coefficients : BT.709
    Color range : Limited

    Audio:
    ID : 321 (0x141)
    Menu ID : 1 (0x1)
    Format : AC-3
    Format/Info : Audio Coding 3
    Mode extension : CM (complete main)
    Format settings, Endianness : Big
    Codec ID : 6
    Duration : 4mn 6s
    Bit rate mode : Constant
    Bit rate : 192 Kbps
    Channel(s) : 2 channels
    Channel positions : Front: L R
    Sampling rate : 48.0 KHz
    Bit depth : 16 bits
    Compression mode : Lossy
    Stream size : 5.65 MiB (5%)
    Language : French

    Hidden Content:
    You must reply before you can see the hidden data contained here.
     
  2. Loading...


  3. DETOX

    DETOX Well-Known Member V . I . P. Uploader

    Joined:
    Feb 20, 2014
    Messages:
    2,837
    Likes Received:
    16,670
    Thank you so much!:love:
     
  4. 777josem

    777josem Well-Known Member Uploader

    Joined:
    Sep 1, 2014
    Messages:
    2,926
    Likes Received:
    1,562
    :happy:Thank you so much!
     
  5. rhea

    rhea Well-Known Member

    Joined:
    Jan 6, 2014
    Messages:
    5,648
    Likes Received:
    365
    thank you so much :)
     
  6. Crusha

    Crusha Well-Known Member Capper

    Joined:
    Oct 15, 2014
    Messages:
    2,350
    Likes Received:
    2,251
    thank you very much

    i have this in MTV Live HD :)
     
    Djodjara likes this.
  7. BinhTVT

    BinhTVT Member

    Joined:
    Jun 30, 2015
    Messages:
    178
    Likes Received:
    3
    thank you
     
  8. Joseph

    Joseph Active Member

    Joined:
    Dec 10, 2013
    Messages:
    743
    Likes Received:
    162
    THANK YOU SO MUCH! :D
     
  9. PETTERTRAN119

    PETTERTRAN119 Member

    Joined:
    Sep 26, 2014
    Messages:
    123
    Likes Received:
    1
  10. Dreamer

    Dreamer Lana Del Rey ♥ Capper Uploader

    Joined:
    Dec 4, 2014
    Messages:
    2,482
    Likes Received:
    2,648
    Thank you
     
  11. sebasswift

    sebasswift Member

    Joined:
    Oct 26, 2015
    Messages:
    117
    Likes Received:
    4
    rihanna only girl
     
  12. Mokmok1986

    Mokmok1986 New Member

    Joined:
    Dec 4, 2015
    Messages:
    9
    Likes Received:
    0
    Nice clip and pretty girl
     
  13. PatricioStar

    PatricioStar Member

    Joined:
    Oct 22, 2015
    Messages:
    55
    Likes Received:
    1
    thanks i love this music video <3
     
  14. Puchacz93

    Puchacz93 Well-Known Member

    Joined:
    Feb 4, 2015
    Messages:
    1,206
    Likes Received:
    701
    Thank you.:love:
     
  15. Snorom6

    Snorom6 Well-Known Member Uploader

    Joined:
    Dec 17, 2015
    Messages:
    4,245
    Likes Received:
    4,168
  16. fob

    fob Member

    Joined:
    Dec 21, 2013
    Messages:
    103
    Likes Received:
    1
    thanks
     
  17. meisam.sch

    meisam.sch Well-Known Member

    Joined:
    Jan 18, 2016
    Messages:
    1,051
    Likes Received:
    41
  18. meisam.sch

    meisam.sch Well-Known Member

    Joined:
    Jan 18, 2016
    Messages:
    1,051
    Likes Received:
    41
    tank you
     
  19. Zeeh

    Zeeh Member

    Joined:
    Mar 20, 2015
    Messages:
    485
    Likes Received:
    10
    Thanks
     
  20. Matthew153860

    Matthew153860 Member

    Joined:
    Jul 3, 2015
    Messages:
    55
    Likes Received:
    5
  21. rdpillz

    rdpillz Member

    Joined:
    Mar 13, 2016
    Messages:
    62
    Likes Received:
    1
    thanks