HDTV Rihanna - (Only Girl In The World) MTV EMA 2010 HDTV 1080i

Discussion in 'HD Live Performances' started by hanshermann, Oct 21, 2017.

  1. hanshermann

    hanshermann Well-Known Member Uploader

    Joined:
    Aug 24, 2016
    Messages:
    7,246
    Likes Received:
    12,585
    [​IMG]

    Rihanna - (Only Girl In The World) MTV EMA 2010 HDTV 1080i

    Code:
    General
    ID                          : 1 (0x1)
    Complete name               : Rihanna.(Only.Girl.In.The.World).MTV.EMA.2010 HDTV1080i.ts
    Format                      : MPEG-TS
    File size                   : 289 MiB
    Duration                    : 3 min 40 s
    Overall bit rate mode       : Variable
    Overall bit rate            : 11.0 Mb/s
    
    Video
    ID                          : 2000 (0x7D0)
    Menu ID                     : 1 (0x1)
    Format                      : AVC
    Format/Info                 : Advanced Video Codec
    Format profile              : Main@L4
    Format settings, CABAC      : Yes
    Format settings, ReFrames   : 4 frames
    Format settings, GOP        : M=4, N=32
    Codec ID                    : 27
    Duration                    : 3 min 40 s
    Bit rate                    : 10.2 Mb/s
    Width                       : 1 920 pixels
    Height                      : 1 080 pixels
    Display aspect ratio        : 16:9
    Frame rate                  : 25.000 FPS
    Color space                 : YUV
    Chroma subsampling          : 4:2:0
    Bit depth                   : 8 bits
    Scan type                   : Interlaced
    Scan type, store method     : Separated fields
    Scan order                  : Top Field First
    Bits/(Pixel*Frame)          : 0.196
    Stream size                 : 268 MiB (93%)
    Color range                 : Limited
    Color primaries             : BT.709
    Transfer characteristics    : BT.709
    Matrix coefficients         : BT.709
    
    Audio
    ID                          : 2001 (0x7D1)
    Menu ID                     : 1 (0x1)
    Format                      : MPEG Audio
    Format version              : Version 1
    Format profile              : Layer 2
    Codec ID                    : 3
    Duration                    : 3 min 40 s
    Bit rate mode               : Constant
    Bit rate                    : 256 kb/s
    Channel(s)                  : 2 channels
    Sampling rate               : 48.0 kHz
    Compression mode            : Lossy
    Delay relative to video     : -40 ms
    Stream size                 : 6.74 MiB (2%)
    Language                    : English
    
    Hidden Content:
    You must either reply or click 'Like' to see the hidden information contained here.
     
    Last edited: Apr 14, 2018
  2. Loading...


  3. mizdot

    mizdot Well-Known Member

    Joined:
    Nov 13, 2014
    Messages:
    2,956
    Likes Received:
    124
    tnx man
     
  4. rhea

    rhea Well-Known Member

    Joined:
    Jan 6, 2014
    Messages:
    8,301
    Likes Received:
    1,190
    thanks
     
  5. hungquocphan

    hungquocphan Active Member

    Joined:
    Nov 1, 2013
    Messages:
    766
    Likes Received:
    36
  6. Godwinson

    Godwinson Active Member

    Joined:
    Oct 23, 2014
    Messages:
    414
    Likes Received:
    66
    Thank you.
     
  7. HERO

    HERO Member

    Joined:
    Feb 8, 2016
    Messages:
    196
    Likes Received:
    21
    Thank you! :)
     
  8. majkimalek

    majkimalek Member

    Joined:
    Jun 12, 2016
    Messages:
    160
    Likes Received:
    19
  9. apl3

    apl3 Well-Known Member

    Joined:
    Jun 11, 2017
    Messages:
    1,214
    Likes Received:
    35
    thanks
     
  10. Pavulon

    Pavulon Well-Known Member Donor

    Joined:
    Mar 22, 2016
    Messages:
    4,648
    Likes Received:
    1,019
    thanks
     
  11. luismolinanyc

    luismolinanyc Active Member

    Joined:
    May 17, 2016
    Messages:
    964
    Likes Received:
    35
  12. DonWal

    DonWal Well-Known Member Capper V . I . P.

    Joined:
    May 11, 2015
    Messages:
    1,204
    Likes Received:
    3,048
    Thank you!
     
  13. ulygatore

    ulygatore Well-Known Member

    Joined:
    Jun 29, 2017
    Messages:
    1,236
    Likes Received:
    62
  14. arthurknoowlesz

    arthurknoowlesz New Member

    Joined:
    Nov 2, 2017
    Messages:
    4
    Likes Received:
    0
    thank you
     
  15. FentyK

    FentyK New Member

    Joined:
    Jul 24, 2017
    Messages:
    15
    Likes Received:
    1
    THANK YOU[​IMG]

    Rihanna - (Only Girl In The World) MTV EMA 2010 HDTV 1080i

    Code:
    General
    ID                          : 1 (0x1)
    Complete name               : Rihanna.(Only.Girl.In.The.World).MTV.EMA.2010 HDTV1080i.ts
    Format                      : MPEG-TS
    File size                   : 289 MiB
    Duration                    : 3 min 40 s
    Overall bit rate mode       : Variable
    Overall bit rate            : 11.0 Mb/s
    
    Video
    ID                          : 2000 (0x7D0)
    Menu ID                     : 1 (0x1)
    Format                      : AVC
    Format/Info                 : Advanced Video Codec
    Format profile              : Main@L4
    Format settings, CABAC      : Yes
    Format settings, ReFrames   : 4 frames
    Format settings, GOP        : M=4, N=32
    Codec ID                    : 27
    Duration                    : 3 min 40 s
    Bit rate                    : 10.2 Mb/s
    Width                       : 1 920 pixels
    Height                      : 1 080 pixels
    Display aspect ratio        : 16:9
    Frame rate                  : 25.000 FPS
    Color space                 : YUV
    Chroma subsampling          : 4:2:0
    Bit depth                   : 8 bits
    Scan type                   : Interlaced
    Scan type, store method     : Separated fields
    Scan order                  : Top Field First
    Bits/(Pixel*Frame)          : 0.196
    Stream size                 : 268 MiB (93%)
    Color range                 : Limited
    Color primaries             : BT.709
    Transfer characteristics    : BT.709
    Matrix coefficients         : BT.709
    
    Audio
    ID                          : 2001 (0x7D1)
    Menu ID                     : 1 (0x1)
    Format                      : MPEG Audio
    Format version              : Version 1
    Format profile              : Layer 2
    Codec ID                    : 3
    Duration                    : 3 min 40 s
    Bit rate mode               : Constant
    Bit rate                    : 256 kb/s
    Channel(s)                  : 2 channels
    Sampling rate               : 48.0 kHz
    Compression mode            : Lossy
    Delay relative to video     : -40 ms
    Stream size                 : 6.74 MiB (2%)
    Language                    : English
    
    ***Hidden content cannot be quoted.***[/QUOTE]
     
  16. koko_love

    koko_love Active Member

    Joined:
    Jun 3, 2015
    Messages:
    685
    Likes Received:
    31
    Thank you :)
     
  17. EDEKA3

    EDEKA3 Active Member

    Joined:
    Nov 8, 2015
    Messages:
    769
    Likes Received:
    32
    Thanks
     
  18. IWNLYD

    IWNLYD Member

    Joined:
    Feb 28, 2017
    Messages:
    275
    Likes Received:
    5
    Thanks!
     
  19. danino2200

    danino2200 Member

    Joined:
    Mar 1, 2016
    Messages:
    141
    Likes Received:
    11
    gracia
    sss
     
  20. biglovejoy

    biglovejoy Member

    Joined:
    Jan 10, 2018
    Messages:
    987
    Likes Received:
    14
    Thank You!
     
  21. ianarturis

    ianarturis Active Member

    Joined:
    Jan 6, 2018
    Messages:
    762
    Likes Received:
    42