HDTV Rihanna - Only Girl (in the World) (live @ Good Morning America) 720p

Discussion in 'HD Live Performances' started by hanshermann, Sep 19, 2017.

  1. hanshermann

    hanshermann Well-Known Member Uploader

    Joined:
    Aug 24, 2016
    Messages:
    6,947
    Likes Received:
    11,144
    [​IMG]

    Rihanna - Only Girl (in the World) (live@GoodMorningAmerica)

    Code:
    General
    Complete name               : Rihanna - Only Girl (in the World) (live@GoodMorningAmerica).mpg
    Format                      : MPEG-PS
    File size                   : 364 MiB
    Duration                    : 4 min 15 s
    Overall bit rate mode       : Variable
    Overall bit rate            : 12.0 Mb/s
    Movie name                  : GOOD MORNING AMERICA
    Law rating                  : None
    
    Video
    ID                          : 224 (0xE0)
    Format                      : MPEG Video
    Format version              : Version 2
    Format profile              : Main@High
    Format settings, BVOP       : Yes
    Format settings, Matrix     : Custom
    Format settings, GOP        : Variable
    Duration                    : 4 min 15 s
    Bit rate mode               : Variable
    Bit rate                    : 11.3 Mb/s
    Maximum bit rate            : 24.0 Mb/s
    Width                       : 1 280 pixels
    Height                      : 720 pixels
    Display aspect ratio        : 16:9
    Frame rate                  : 59.940 (60000/1001) FPS
    Color space                 : YUV
    Chroma subsampling          : 4:2:0
    Bit depth                   : 8 bits
    Scan type                   : Progressive
    Compression mode            : Lossy
    Bits/(Pixel*Frame)          : 0.205
    Time code of first frame    : 00:00:00;00
    Time code source            : Group of pictures header
    Stream size                 : 345 MiB (95%)
    
    Audio
    ID                          : 189 (0xBD)-128 (0x80)
    Format                      : AC-3
    Format/Info                 : Audio Coding 3
    Format settings, Endianness : Big
    Muxing mode                 : DVD-Video
    Duration                    : 4 min 15 s
    Bit rate mode               : Constant
    Bit rate                    : 384 kb/s
    Channel(s)                  : 6 channels
    Channel positions           : Front: L C R, Side: L R, LFE
    Sampling rate               : 48.0 kHz
    Frame rate                  : 31.250 FPS (1536 spf)
    Bit depth                   : 16 bits
    Compression mode            : Lossy
    Stream size                 : 11.7 MiB (3%)
    Service kind                : Complete Main
    
    Text #1
    ID                          : 224 (0xE0)-CC1
    Format                      : EIA-608
    Muxing mode                 : A/53 / DTVCC Transport
    Muxing mode, more info      : Muxed in Video #1
    Duration                    : 4 min 15 s
    Bit rate mode               : Constant
    Stream size                 : 0.00 Byte (0%)
    CaptionServiceName          : CC1
    
    Hidden Content:
    You must either reply or click 'Like' to see the hidden information contained here.
     
    Last edited: Apr 14, 2018
    Sidney, magicoken, kismakk and 10 others like this.
  2. Loading...


  3. lim

    lim Well-Known Member

    Joined:
    Nov 8, 2013
    Messages:
    2,033
    Likes Received:
    76
    thank you
     
  4. tf135

    tf135 Well-Known Member

    Joined:
    Nov 14, 2014
    Messages:
    3,261
    Likes Received:
    193
    thanks
     
  5. frisby

    frisby Well-Known Member

    Joined:
    Nov 21, 2015
    Messages:
    1,547
    Likes Received:
    134
    thanks
     
  6. lypsyl

    lypsyl Member

    Joined:
    Mar 1, 2016
    Messages:
    368
    Likes Received:
    12
    thanks
     
  7. Vinny

    Vinny Well-Known Member

    Joined:
    Dec 26, 2013
    Messages:
    3,908
    Likes Received:
    50
    Thanks! ;-D
     
  8. uminomiyako

    uminomiyako Well-Known Member

    Joined:
    May 28, 2016
    Messages:
    2,636
    Likes Received:
    99
  9. apl3

    apl3 Well-Known Member

    Joined:
    Jun 11, 2017
    Messages:
    1,117
    Likes Received:
    29
    thanks
     
  10. Niclove21

    Niclove21 Member

    Joined:
    Sep 2, 2016
    Messages:
    179
    Likes Received:
    19
    Thanks
     
  11. DonWal

    DonWal Well-Known Member Capper V . I . P.

    Joined:
    May 11, 2015
    Messages:
    1,161
    Likes Received:
    2,766
    Thank you!
     
  12. multimediafm

    multimediafm Well-Known Member Donor

    Joined:
    Mar 27, 2014
    Messages:
    13,139
    Likes Received:
    1,045
  13. TrendMusic

    TrendMusic Well-Known Member

    Joined:
    Oct 7, 2013
    Messages:
    1,708
    Likes Received:
    159
  14. rkn9

    rkn9 Well-Known Member

    Joined:
    Jan 9, 2016
    Messages:
    4,210
    Likes Received:
    66
    oleeeeeeeeeeeeeee
     
  15. Neoxyh

    Neoxyh Member

    Joined:
    May 26, 2015
    Messages:
    104
    Likes Received:
    5
    thanks
     
  16. Danny82

    Danny82 Well-Known Member

    Joined:
    May 28, 2016
    Messages:
    2,412
    Likes Received:
    672
    Thank you so much!!!
     
  17. dersullana

    dersullana Well-Known Member

    Joined:
    Dec 21, 2015
    Messages:
    1,075
    Likes Received:
    53
  18. John

    John Member

    Joined:
    Oct 30, 2013
    Messages:
    501
    Likes Received:
    5
    Thanks
     
  19. ianarturis

    ianarturis Member

    Joined:
    Jan 6, 2018
    Messages:
    390
    Likes Received:
    2
  20. biglovejoy

    biglovejoy Member

    Joined:
    Jan 10, 2018
    Messages:
    777
    Likes Received:
    6
    Thank you!
     
  21. theclimb

    theclimb Well-Known Member

    Joined:
    Dec 16, 2014
    Messages:
    1,321
    Likes Received:
    195
    thanks