HDTV Rihanna - Jingle Bell Ball Live 2011 720p

Discussion in 'HD Live Performances' started by hanshermann, Oct 21, 2017.

  1. hanshermann

    hanshermann Well-Known Member Uploader

    Joined:
    Aug 24, 2016
    Messages:
    6,309
    Likes Received:
    9,009
    [​IMG]

    Rihanna - Medley - Jingle Bell Ball Live 2011 720p

    Code:
    General
    Complete name               : Rihanna Performing On Jingle Ball 2011.mp4
    Format                      : MPEG-4
    Format profile              : Base Media / Version 2
    Codec ID                    : mp42 (isom/mp42)
    File size                   : 397 MiB
    Duration                    : 24 min 40 s
    Overall bit rate mode       : Variable
    Overall bit rate            : 2 252 kb/s
    Encoded date                : UTC 2011-12-04 08:02:58
    Tagged date                 : UTC 2011-12-04 08:02:58
    gsst                        : 0
    gstd                        : 1480085
    gssd                        : BADC206A1MH1323240714413890
    gshh                        : v6.nonxt7.c.youtube.com
    
    Video
    ID                          : 1
    Format                      : AVC
    Format/Info                 : Advanced Video Codec
    Format profile              : High@L3.1
    Format settings, CABAC      : Yes
    Format settings, ReFrames   : 1 frame
    Codec ID                    : avc1
    Codec ID/Info               : Advanced Video Coding
    Duration                    : 24 min 40 s
    Bit rate                    : 2 098 kb/s
    Maximum bit rate            : 6 919 kb/s
    Width                       : 1 280 pixels
    Height                      : 720 pixels
    Display aspect ratio        : 16:9
    Frame rate mode             : Constant
    Frame rate                  : 25.000 FPS
    Color space                 : YUV
    Chroma subsampling          : 4:2:0
    Bit depth                   : 8 bits
    Scan type                   : Progressive
    Bits/(Pixel*Frame)          : 0.091
    Stream size                 : 370 MiB (93%)
    Encoded date                : UTC 1970-01-01 00:00:00
    Tagged date                 : UTC 2011-12-04 08:03:02
    
    Audio
    ID                          : 2
    Format                      : AAC
    Format/Info                 : Advanced Audio Codec
    Format profile              : LC
    Codec ID                    : 40
    Duration                    : 24 min 40 s
    Bit rate mode               : Variable
    Bit rate                    : 152 kb/s
    Maximum bit rate            : 187 kb/s
    Channel(s)                  : 2 channels
    Channel positions           : Front: L R
    Sampling rate               : 44.1 kHz
    Frame rate                  : 43.066 FPS (1024 spf)
    Compression mode            : Lossy
    Stream size                 : 26.8 MiB (7%)
    Title                       : IsoMedia File Produced by Google, 5-11-2011
    Encoded date                : UTC 2011-12-04 08:03:00
    Tagged date                 : UTC 2011-12-04 08:03:02
    
    Hidden Content:
    You must either reply or click 'Like' to see the hidden information contained here.
     
    Last edited: Apr 14, 2018
  2. Loading...


  3. kismakk

    kismakk Member

    Joined:
    Jul 2, 2014
    Messages:
    499
    Likes Received:
    11
    thanks
     
  4. Igor

    Igor Active Member

    Joined:
    Jul 13, 2014
    Messages:
    372
    Likes Received:
    26
    Thank you so much!
     
  5. zuiderheide

    zuiderheide Well-Known Member

    Joined:
    Nov 18, 2013
    Messages:
    2,456
    Likes Received:
    80
  6. mizdot

    mizdot Well-Known Member

    Joined:
    Nov 13, 2014
    Messages:
    2,575
    Likes Received:
    113
    tnx man
     
  7. carlos69

    carlos69 Well-Known Member

    Joined:
    Dec 17, 2013
    Messages:
    1,242
    Likes Received:
    91
    Thanks
     
  8. carlos69

    carlos69 Well-Known Member

    Joined:
    Dec 17, 2013
    Messages:
    1,242
    Likes Received:
    91
    Thanks
     
  9. nino.navy

    nino.navy Well-Known Member

    Joined:
    May 30, 2014
    Messages:
    2,901
    Likes Received:
    175
    thanks a lot
     
  10. Extazy4u2

    Extazy4u2 Well-Known Member

    Joined:
    Jan 26, 2017
    Messages:
    2,380
    Likes Received:
    254
  11. Tommyboy

    Tommyboy Active Member

    Joined:
    Oct 23, 2016
    Messages:
    893
    Likes Received:
    35
    T.Hanks
     
  12. rhea

    rhea Well-Known Member

    Joined:
    Jan 6, 2014
    Messages:
    7,787
    Likes Received:
    984
    thanks
     
  13. exterminador

    exterminador Well-Known Member

    Joined:
    Jul 3, 2016
    Messages:
    2,252
    Likes Received:
    193
  14. uminomiyako

    uminomiyako Well-Known Member

    Joined:
    May 28, 2016
    Messages:
    2,318
    Likes Received:
    91
  15. abcde54321

    abcde54321 Active Member

    Joined:
    Apr 6, 2014
    Messages:
    891
    Likes Received:
    26
    Format : MPEG-4
    Format profile : Base Media / Version 2
    Codec ID : mp42 (isom/mp42)
    File size : 397 MiB
    Duration : 24 min 40 s
    Overall bit rate mode : Variable
    Overall bit rate : 2 252 kb/s
    Encoded date : UTC 2011-12-04 08:02:58
    Tagged date : UTC 2011-12-04 08:02:58
    gsst : 0
    gstd : 1480085
    gssd : BADC206A1MH1323240714413890
    gshh : v6.nonxt7.c.youtube.com

    Video
    ID : 1
    Format : AVC
    Format/Info : Advanced Video Codec
    Format profile : High@L3.1
    Format settings, CABAC : Yes
    Format settings, ReFrames : 1 frame
    Codec ID : avc1
    Codec ID/Info : Advanced Video Coding
    Duration : 24 min 40 s
    Bit rate : 2 098 kb/s
    Maximum bit rate : 6 919 kb/s
    Width : 1 280 pixels
    Height : 720 pixels
    Display aspect ratio : 16:9
    Frame rate mode : Constant
    Frame rate : 25.000 FPS
    Color space : YUV
    Chroma subsampling : 4:2:0
    Bit depth : 8 bits
    Scan type : Progressive
    Bits/(Pixel*Frame) : 0.091
    Stream size : 370 MiB (93%)
    Encoded date : UTC 1970-01-01 00:00:00
    Tagged date : UTC 2011-12-04 08:03:02

    Audio
    ID : 2
    Format : AAC
    Format/Info : Advanced Audio Codec
    Format profile : LC
    Codec ID : 40
    Duration : 24 min 40 s
    Bit rate mode : Variable
    Bit rate : 152 kb/s
    Maximum bit rate : 187 kb/s
    Channel(s) : 2 channels
    Channel positions : Front: L R
    Sampling rate : 44.1 kHz
    Frame rate : 43.066 FPS (1024 spf)
    Compression mode : Lossy
    Stream size : 26.8 MiB (7%)
    Title : IsoMedia File Produced by Google, 5-11-2011
    Encoded date
     
  16. narltv2

    narltv2 Member

    Joined:
    Apr 20, 2017
    Messages:
    83
    Likes Received:
    4
    thanks
     
  17. kiiwii

    kiiwii Member

    Joined:
    Oct 10, 2013
    Messages:
    354
    Likes Received:
    10
    tnx man
     
  18. apl3

    apl3 Active Member

    Joined:
    Jun 11, 2017
    Messages:
    981
    Likes Received:
    28
    thanks
     
  19. Pavulon

    Pavulon Well-Known Member Donor

    Joined:
    Mar 22, 2016
    Messages:
    4,479
    Likes Received:
    889
    thanks
     
  20. Vinny

    Vinny Well-Known Member

    Joined:
    Dec 26, 2013
    Messages:
    3,844
    Likes Received:
    46
    Thanks! ;-D
     
  21. isham023

    isham023 Well-Known Member

    Joined:
    Nov 30, 2013
    Messages:
    2,519
    Likes Received:
    68