Rihanna - If It's Lovin' That You Want (VH1HD-1080i-DD2.0-Crusha)

Discussion in 'VH1 HD' started by Crusha, Feb 22, 2016.

  1. Crusha

    Crusha Well-Known Member Capper V . I . P.

    Joined:
    Oct 15, 2014
    Messages:
    2,358
    Likes Received:
    2,779
    [​IMG]
    [​IMG]
    [​IMG]

    Mediainfo
    General
    ID : 1 (0x1)
    Complete name : Rihanna - If It's Lovin' That You Want (VH1.HD.1080i.DD2.0).-Crusha.ts
    Format : MPEG-TS
    File size : 105 MiB
    Duration : 3mn 34s
    Overall bit rate mode : Variable
    Overall bit rate : 4 105 Kbps

    Video
    ID : 2943 (0xB7F)
    Menu ID : 1515 (0x5EB)
    Format : AVC
    Format/Info : Advanced Video Codec
    Format profile : High@L4
    Format settings, CABAC : Yes
    Format settings, ReFrames : 4 frames
    Codec ID : 27
    Duration : 3mn 34s
    Bit rate : 3 514 Kbps
    Width : 1 920 pixels
    Height : 1 080 pixels
    Display aspect ratio : 16:9
    Frame rate : 29.970 fps
    Standard : Component
    Color space : YUV
    Chroma subsampling : 4:2:0
    Bit depth : 8 bits
    Scan type : MBAFF
    Scan order : Top Field First
    Bits/(Pixel*Frame) : 0.057
    Stream size : 89.7 MiB (86%)
    Color range : Limited
    Color primaries : BT.709
    Transfer characteristics : BT.709
    Matrix coefficients : BT.709

    Audio
    ID : 3909 (0xF45)
    Menu ID : 1515 (0x5EB)
    Format : AC-3
    Format/Info : Audio Coding 3
    Mode extension : CM (complete main)
    Format settings, Endianness : Big
    Codec ID : 6
    Duration : 3mn 34s
    Bit rate mode : Constant
    Bit rate : 384 Kbps
    Channel(s) : 2 channels
    Channel positions : Front: L R
    Sampling rate : 48.0 KHz
    Bit depth : 16 bits
    Compression mode : Lossy
    Delay relative to video : -33ms
    Stream size : 9.81 MiB (9%)
    Language : English

    Hidden Content:
    You must reply before you can see the hidden data contained here.
    Password:
    crusha
     
    polmaxu, meisam.sch and rorygallagher like this.
  2. Loading...


  3. rorygallagher

    rorygallagher New Member

    Joined:
    Feb 22, 2016
    Messages:
    3
    Likes Received:
    0
    Thanks alot
     
  4. Snorom6

    Snorom6 Well-Known Member V . I . P. Uploader

    Joined:
    Dec 17, 2015
    Messages:
    4,248
    Likes Received:
    5,602
  5. meisam.sch

    meisam.sch Well-Known Member

    Joined:
    Jan 18, 2016
    Messages:
    1,077
    Likes Received:
    45
  6. yonita

    yonita Active Member

    Joined:
    Mar 7, 2016
    Messages:
    473
    Likes Received:
    61
    gracias <3
     
    Crusha likes this.
  7. miyara

    miyara My reputation died in this forum V . I . P. Uploader

    Joined:
    Feb 21, 2016
    Messages:
    1,034
    Likes Received:
    3,327
    thanks
     
  8. PedroCorrea

    PedroCorrea Active Member

    Joined:
    Aug 21, 2014
    Messages:
    359
    Likes Received:
    51
  9. aadriro

    aadriro New Member

    Joined:
    Apr 29, 2016
    Messages:
    17
    Likes Received:
    1
    thanks *-*
     
  10. lol211

    lol211 Member

    Joined:
    Jul 2, 2016
    Messages:
    57
    Likes Received:
    1
    thanks
     
  11. zuluka

    zuluka Active Member

    Joined:
    Jul 9, 2016
    Messages:
    951
    Likes Received:
    25
    Thanks!
     
  12. sub2

    sub2 Member

    Joined:
    Jun 2, 2016
    Messages:
    44
    Likes Received:
    2
    member
     
  13. Johan Pinzon

    Johan Pinzon Member

    Joined:
    Aug 15, 2016
    Messages:
    347
    Likes Received:
    18
  14. blabla

    blabla New Member

    Joined:
    Sep 13, 2016
    Messages:
    1
    Likes Received:
    0
    tnx haha
     
  15. polmaxu

    polmaxu New Member

    Joined:
    Sep 16, 2016
    Messages:
    5
    Likes Received:
    0
    THANKS VERY MUCH
    , post: 361066, member: 21863"]tnx haha[/QUOTE]

    [​IMG]
    [​IMG]
    [​IMG]

    Mediainfo
    General
    ID : 1 (0x1)
    Complete name : Rihanna - If It's Lovin' That You Want (VH1.HD.1080i.DD2.0).-Crusha.ts
    Format : MPEG-TS
    File size : 105 MiB
    Duration : 3mn 34s
    Overall bit rate mode : Variable
    Overall bit rate : 4 105 Kbps

    Video
    ID : 2943 (0xB7F)
    Menu ID : 1515 (0x5EB)
    Format : AVC
    Format/Info : Advanced Video Codec
    Format profile : High@L4
    Format settings, CABAC : Yes
    Format settings, ReFrames : 4 frames
    Codec ID : 27
    Duration : 3mn 34s
    Bit rate : 3 514 Kbps
    Width : 1 920 pixels
    Height : 1 080 pixels
    Display aspect ratio : 16:9
    Frame rate : 29.970 fps
    Standard : Component
    Color space : YUV
    Chroma subsampling : 4:2:0
    Bit depth : 8 bits
    Scan type : MBAFF
    Scan order : Top Field First
    Bits/(Pixel*Frame) : 0.057
    Stream size : 89.7 MiB (86%)
    Color range : Limited
    Color primaries : BT.709
    Transfer characteristics : BT.709
    Matrix coefficients : BT.709

    Audio
    ID : 3909 (0xF45)
    Menu ID : 1515 (0x5EB)
    Format : AC-3
    Format/Info : Audio Coding 3
    Mode extension : CM (complete main)
    Format settings, Endianness : Big
    Codec ID : 6
    Duration : 3mn 34s
    Bit rate mode : Constant
    Bit rate : 384 Kbps
    Channel(s) : 2 channels
    Channel positions : Front: L R
    Sampling rate : 48.0 KHz
    Bit depth : 16 bits
    Compression mode : Lossy
    Delay relative to video : -33ms
    Stream size : 9.81 MiB (9%)
    Language : English
    ***Hidden content cannot be quoted.***

    Password:
    crusha[/QUOTE]
     
  16. hanshermann

    hanshermann Well-Known Member Uploader

    Joined:
    Aug 24, 2016
    Messages:
    5,759
    Likes Received:
    7,221
    wahts taht
     
  17. matzka

    matzka New Member

    Joined:
    Feb 24, 2017
    Messages:
    24
    Likes Received:
    3
    thanks!!!!!!!!!!!!
     
  18. DiVenturas

    DiVenturas Well-Known Member

    Joined:
    Oct 21, 2015
    Messages:
    2,755
    Likes Received:
    153
  19. allynat

    allynat Member

    Joined:
    Dec 25, 2017
    Messages:
    651
    Likes Received:
    11
    clave: !Cb6x62_sabb-t8GubNnPS_GQ2NUgCAlwiOCsCZyELNY
     
  20. lim

    lim Well-Known Member

    Joined:
    Nov 8, 2013
    Messages:
    1,960
    Likes Received:
    55
    thanks
     
  21. RogerCieslar

    RogerCieslar New Member

    Joined:
    Jan 3, 2018
    Messages:
    19
    Likes Received:
    0