HDTV Rihanna - Good Girl Gone Bad - Live in Manchester (2008) - HDTV 1080p - PAFF

Discussion in 'HD Live Performances' started by hanshermann, Jun 30, 2017.

  1. hanshermann

    hanshermann Well-Known Member Uploader

    Joined:
    Aug 24, 2016
    Messages:
    7,246
    Likes Received:
    12,586
    [​IMG]

    Rihanna - Good Girl Gone Bad - Live in Manchester (2008) - HDTV 1080p - PAFF

    Code:
    General
    ID                          : 1 (0x1)
    Complete name               : Rihanna Live in Concert 1080PAFF HDTV DD2.0 H.264.ts
    Format                      : MPEG-TS
    File size                   : 5.02 GiB
    Duration                    : 48 min 19 s
    Overall bit rate mode       : Variable
    Overall bit rate            : 14.9 Mb/s
    Maximum Overall bit rate    : 35.5 Mb/s
    
    Video
    ID                          : 4113 (0x1011)
    Menu ID                     : 1 (0x1)
    Format                      : AVC
    Format/Info                 : Advanced Video Codec
    Format profile              : Main@L4
    Format settings, CABAC      : Yes
    Format settings, ReFrames   : 4 frames
    Format settings, GOP        : M=4, N=13
    Codec ID                    : 27
    Duration                    : 48 min 14 s
    Bit rate mode               : Variable
    Bit rate                    : 13.8 Mb/s
    Maximum bit rate            : 40.0 Mb/s
    Width                       : 1 920 pixels
    Height                      : 1 080 pixels
    Display aspect ratio        : 16:9
    Frame rate                  : 25.000 FPS
    Color space                 : YUV
    Chroma subsampling          : 4:2:0
    Bit depth                   : 8 bits
    Scan type                   : Interlaced
    Scan type, store method     : Separated fields
    Scan order                  : Top Field First
    Bits/(Pixel*Frame)          : 0.265
    Stream size                 : 4.64 GiB (92%)
    Color range                 : Full
    Color primaries             : BT.709
    Transfer characteristics    : BT.709
    Matrix coefficients         : BT.709
    
    Audio
    ID                          : 4352 (0x1100)
    Menu ID                     : 1 (0x1)
    Format                      : AC-3
    Format/Info                 : Audio Coding 3
    Format settings, Endianness : Big
    Codec ID                    : 129
    Duration                    : 48 min 13 s
    Bit rate mode               : Constant
    Bit rate                    : 384 kb/s
    Channel(s)                  : 2 channels
    Channel positions           : Front: L R
    Sampling rate               : 48.0 kHz
    Frame rate                  : 31.250 FPS (1536 spf)
    Bit depth                   : 16 bits
    Compression mode            : Lossy
    Delay relative to video     : -61 ms
    Stream size                 : 132 MiB (3%)
    Language                    : English
    Service kind                : Complete Main
    Hidden Content:
    You must either reply or click 'Like' to see the hidden information contained here.
     
    Last edited: Apr 14, 2018
  2. Loading...


  3. astra1234

    astra1234 Active Member

    Joined:
    Jul 1, 2016
    Messages:
    253
    Likes Received:
    36
    thanks
     
  4. lim

    lim Well-Known Member

    Joined:
    Nov 8, 2013
    Messages:
    2,112
    Likes Received:
    79
    thanks
     
  5. submariner9728

    submariner9728 Well-Known Member

    Joined:
    Dec 26, 2014
    Messages:
    1,183
    Likes Received:
    33
  6. tf135

    tf135 Well-Known Member

    Joined:
    Nov 14, 2014
    Messages:
    3,498
    Likes Received:
    200
    thank you
     
  7. Pavulon

    Pavulon Well-Known Member Donor

    Joined:
    Mar 22, 2016
    Messages:
    4,648
    Likes Received:
    1,019
    thanks
     
  8. andrei andreev

    andrei andreev Member

    Joined:
    Oct 13, 2016
    Messages:
    97
    Likes Received:
    0
  9. Vinny

    Vinny Well-Known Member

    Joined:
    Dec 26, 2013
    Messages:
    4,008
    Likes Received:
    52
    Thanks! ;-D
     
  10. abcde54321

    abcde54321 Active Member

    Joined:
    Apr 6, 2014
    Messages:
    937
    Likes Received:
    27
    dont play around

    PLEASE FIX LINKS. TX
     
    Last edited: Jun 30, 2017
  11. exterminador

    exterminador Well-Known Member

    Joined:
    Jul 3, 2016
    Messages:
    2,508
    Likes Received:
    212
  12. hanshermann

    hanshermann Well-Known Member Uploader

    Joined:
    Aug 24, 2016
    Messages:
    7,246
    Likes Received:
    12,586
    Google blocked some accounts...
     
    Last edited: Jul 1, 2017
  13. hanshermann

    hanshermann Well-Known Member Uploader

    Joined:
    Aug 24, 2016
    Messages:
    7,246
    Likes Received:
    12,586
    it´s live again.
     
  14. Chris

    Chris Active Member

    Joined:
    Oct 19, 2013
    Messages:
    764
    Likes Received:
    26
    Thank you
     
  15. abcde54321

    abcde54321 Active Member

    Joined:
    Apr 6, 2014
    Messages:
    937
    Likes Received:
    27
    thank you
     
  16. mcslimshady

    mcslimshady Well-Known Member

    Joined:
    Jun 20, 2016
    Messages:
    2,024
    Likes Received:
    51
    thanks man
     
  17. 12wurzel

    12wurzel Active Member

    Joined:
    Oct 16, 2016
    Messages:
    547
    Likes Received:
    37
    Thank you
     
  18. CELOBRAZiL

    CELOBRAZiL Well-Known Member Capper V . I . P. Donor

    Joined:
    Oct 2, 2013
    Messages:
    5,718
    Likes Received:
    18,524
    Thanks! :)
     
  19. furutech

    furutech Member

    Joined:
    Jun 24, 2017
    Messages:
    63
    Likes Received:
    2
    Thanks
     
  20. JSK

    JSK Member

    Joined:
    Oct 16, 2016
    Messages:
    88
    Likes Received:
    3
    thanks
     
  21. murayan_k

    murayan_k Active Member

    Joined:
    Dec 12, 2016
    Messages:
    171
    Likes Received:
    41
    thanks