HDTV Rihanna - Good Girl Gone Bad - Live from Manchester 1080i

Discussion in 'HD Live Performances' started by hanshermann, Jul 11, 2018 at 4:10 AM.

  1. hanshermann

    hanshermann Well-Known Member Uploader

    Joined:
    Aug 24, 2016
    Messages:
    6,456
    Likes Received:
    9,876
    [​IMG]

    Rihanna - Good Girl Gone Bad - Live from Manchester 1080i

    Code:
    General
    ID                          : 12 (0xC)
    Complete name               : Rihanna - Good Girl Gone Bad - Live from Manchester 1080i\20110102-1830-rihana.ts
    Format                      : MPEG-TS
    File size                   : 6.46 GiB
    Duration                    : 1 h 15 min
    Overall bit rate mode       : Variable
    Overall bit rate            : 12.3 Mb/s
    
    Video
    ID                          : 323 (0x143)
    Menu ID                     : 12103 (0x2F47)
    Format                      : AVC
    Format/Info                 : Advanced Video Codec
    Format profile              : Main@L4
    Format settings             : CABAC / 4 Ref Frames
    Format settings, CABAC      : Yes
    Format settings, ReFrames   : 4 frames
    Codec ID                    : 27
    Duration                    : 1 h 15 min
    Bit rate                    : 11.5 Mb/s
    Width                       : 1 920 pixels
    Height                      : 1 080 pixels
    Display aspect ratio        : 16:9
    Frame rate                  : 25.000 FPS
    Standard                    : Component
    Color space                 : YUV
    Chroma subsampling          : 4:2:0
    Bit depth                   : 8 bits
    Scan type                   : Interlaced
    Scan type, store method     : Separated fields
    Scan order                  : Top Field First
    Bits/(Pixel*Frame)          : 0.222
    Stream size                 : 6.04 GiB (94%)
    Color range                 : Limited
    Color primaries             : BT.709
    Transfer characteristics    : BT.709
    Matrix coefficients         : BT.709
    
    Audio
    ID                          : 403 (0x193)
    Menu ID                     : 12103 (0x2F47)
    Format                      : MPEG Audio
    Format version              : Version 1
    Format profile              : Layer 2
    Codec ID                    : 4
    Duration                    : 1 h 15 min
    Bit rate mode               : Constant
    Bit rate                    : 192 kb/s
    Channel(s)                  : 2 channels
    Sampling rate               : 48.0 kHz
    Frame rate                  : 41.667 FPS (1152 SPF)
    Compression mode            : Lossy
    Delay relative to video     : -8 ms
    Stream size                 : 103 MiB (2%)
    Language                    : Russian
    Language, more info         : Clean effects
    
    Menu
    ID                          : 3303 (0xCE7)
    Menu ID                     : 12103 (0x2F47)
    Duration                    : 1 h 15 min
    List                        : 323 (0x143) (AVC) / 403 (0x193) (MPEG Audio, Russian)
    Language                    :  / Russian
    
    Hidden Content:
    You must either reply or click 'Like' to see the hidden information contained here.
     
    dark1angel, Carlos, tf135 and 5 others like this.
  2. Loading...


  3. jorotre

    jorotre Active Member

    Joined:
    Dec 21, 2015
    Messages:
    899
    Likes Received:
    41
  4. junior.ca

    junior.ca Well-Known Member

    Joined:
    Jun 1, 2014
    Messages:
    1,478
    Likes Received:
    78
  5. sylvieyunjae

    sylvieyunjae Active Member

    Joined:
    Feb 29, 2016
    Messages:
    856
    Likes Received:
    41
  6. Extazy4u2

    Extazy4u2 Well-Known Member

    Joined:
    Jan 26, 2017
    Messages:
    2,480
    Likes Received:
    262
  7. HERO

    HERO Member

    Joined:
    Feb 8, 2016
    Messages:
    192
    Likes Received:
    19
  8. mcslimshady

    mcslimshady Well-Known Member

    Joined:
    Jun 20, 2016
    Messages:
    1,820
    Likes Received:
    46
  9. biglovejoy

    biglovejoy Member

    Joined:
    Jan 10, 2018
    Messages:
    546
    Likes Received:
    3
  10. inactive1326

    inactive1326 Member

    Joined:
    May 25, 2017
    Messages:
    54
    Likes Received:
    8
  11. mizdot

    mizdot Well-Known Member

    Joined:
    Nov 13, 2014
    Messages:
    2,679
    Likes Received:
    115