Rihanna Feat. Jay-Z - Umbrella (VH1HD-1080i-DD2.0-CELOBRAZiL)-HDMania

Discussion in 'VH1 HD' started by DETOX, Jan 16, 2016.

  1. DETOX

    DETOX Well-Known Member V . I . P. Uploader

    Joined:
    Feb 20, 2014
    Messages:
    2,787
    Likes Received:
    15,070
    [​IMG]
    Code:
    General
    ID                                       : 1 (0x1)
    Complete name                            : Rihanna Feat. Jay-Z - Umbrella (VH1HD-1080i-DD2.0-CELOBRAZiL)-HDMania.ts
    Format                                   : MPEG-TS
    File size                                : 281 MiB
    Duration                                 : 4mn 11s
    Overall bit rate mode                    : Variable
    Overall bit rate                         : 9 396 Kbps
    
    Video
    ID                                       : 5408 (0x1520)
    Menu ID                                  : 1 (0x1)
    Format                                   : AVC
    Format/Info                              : Advanced Video Codec
    Format profile                           : [email protected]
    Format settings, CABAC                   : Yes
    Format settings, ReFrames                : 2 frames
    Codec ID                                 : 27
    Duration                                 : 4mn 10s
    Bit rate                                 : 8 544 Kbps
    Width                                    : 1 920 pixels
    Height                                   : 1 080 pixels
    Display aspect ratio                     : 16:9
    Frame rate                               : 29.970 fps
    Color space                              : YUV
    Chroma subsampling                       : 4:2:0
    Bit depth                                : 8 bits
    Scan type                                : MBAFF
    Scan order                               : Top Field First
    Bits/(Pixel*Frame)                       : 0.137
    Stream size                              : 256 MiB (91%)
    Color range                              : Limited
    Color primaries                          : BT.709
    Transfer characteristics                 : BT.709
    Matrix coefficients                      : BT.709
    
    Audio
    ID                                       : 5410 (0x1522)
    Menu ID                                  : 1 (0x1)
    Format                                   : AC-3
    Format/Info                              : Audio Coding 3
    Mode extension                           : CM (complete main)
    Format settings, Endianness              : Big
    Codec ID                                 : 129
    Duration                                 : 4mn 10s
    Bit rate mode                            : Constant
    Bit rate                                 : 384 Kbps
    Channel(s)                               : 2 channels
    Channel positions                        : Front: L R
    Sampling rate                            : 48.0 KHz
    Bit depth                                : 16 bits
    Compression mode                         : Lossy
    Stream size                              : 11.5 MiB (4%)
    Language                                 : English
    Server: cloud.mail.ru
    Hidden Content:
    You must reply before you can see the hidden data contained here.
     
  2. Loading...


  3. Dave

    Dave Well-Known Member

    Joined:
    Jun 2, 2015
    Messages:
    549
    Likes Received:
    283
    gracias :)
     
  4. zchs1988

    zchs1988 New Member

    Joined:
    Jan 16, 2016
    Messages:
    1
    Likes Received:
    0
    thank you
     
  5. Snorom6

    Snorom6 Well-Known Member Uploader

    Joined:
    Dec 17, 2015
    Messages:
    4,245
    Likes Received:
    3,769
  6. maurohachen

    maurohachen Member

    Joined:
    Feb 24, 2015
    Messages:
    396
    Likes Received:
    17
  7. Chris Sooz

    Chris Sooz Member

    Joined:
    Jan 13, 2016
    Messages:
    191
    Likes Received:
    3
    thankss!
     
  8. jonathan joel 97

    jonathan joel 97 Member

    Joined:
    Oct 1, 2015
    Messages:
    89
    Likes Received:
    23
  9. 江雨燃双鱼

    江雨燃双鱼 Active Member

    Joined:
    Apr 5, 2014
    Messages:
    595
    Likes Received:
    35
  10. yonita

    yonita Active Member

    Joined:
    Mar 7, 2016
    Messages:
    378
    Likes Received:
    25
    gracias... me encanta
     
  11. rdpillz

    rdpillz Member

    Joined:
    Mar 13, 2016
    Messages:
    62
    Likes Received:
    1
    thanks
     
  12. juliencrg

    juliencrg New Member

    Joined:
    Mar 15, 2016
    Messages:
    19
    Likes Received:
    0
  13. leanfelipe

    leanfelipe Member

    Joined:
    Mar 24, 2016
    Messages:
    51
    Likes Received:
    2
    valeuuuuuuu
     
  14. meisam.sch

    meisam.sch Well-Known Member

    Joined:
    Jan 18, 2016
    Messages:
    1,051
    Likes Received:
    40
  15. hardcoregamer40

    hardcoregamer40 Member

    Joined:
    May 9, 2016
    Messages:
    86
    Likes Received:
    5
    finally ty
     
  16. revilo18

    revilo18 Well-Known Member

    Joined:
    May 26, 2016
    Messages:
    1,310
    Likes Received:
    58
    thank
     
  17. hoanganhtuan

    hoanganhtuan Member

    Joined:
    Jun 4, 2016
    Messages:
    72
    Likes Received:
    0
    thank you
     
  18. wkwkwaku

    wkwkwaku Active Member

    Joined:
    May 23, 2015
    Messages:
    606
    Likes Received:
    53
  19. hanshermann

    hanshermann Active Member

    Joined:
    Aug 24, 2016
    Messages:
    1,485
    Likes Received:
    5
    wahts taht
     
  20. wangyuqiang

    wangyuqiang Member

    Joined:
    Jul 21, 2016
    Messages:
    120
    Likes Received:
    3
    thank you
     
  21. goodnfriend

    goodnfriend Member

    Joined:
    Mar 1, 2017
    Messages:
    108
    Likes Received:
    0