Rihanna - Don't Stop The Music | MCM Top-HDTV 1080i-DD2.0 | IboYLDz-HDMania

Discussion in 'MCM & MCM Top HD' started by By.YLDz, Dec 6, 2015.

  1. By.YLDz

    By.YLDz Hayley Williams Fan :) Capper

    Joined:
    Oct 7, 2013
    Messages:
    363
    Likes Received:
    4,121
    ReC. IboYLDz

    [​IMG]

    [​IMG]

    [​IMG]

    [​IMG]

    [​IMG]

    [​IMG]

    [​IMG]

    [​IMG]

    [​IMG]

    Format : MPEG-TS
    File size : 151 MiB
    Duration : 3mn 51s
    Overall bit rate mode : Variable
    Overall bit rate : 5 457 Kbps

    Video
    ID : 310 (0x136)
    Menu ID : 8603 (0x219B)
    Format : AVC
    Format/Info : Advanced Video Codec
    Format profile : [email protected]
    Format settings, CABAC : Yes
    Format settings, ReFrames : 4 frames
    Codec ID : 27
    Duration : 3mn 51s
    Bit rate : 4 993 Kbps
    Width : 1 440 pixels
    Height : 1 080 pixels
    Display aspect ratio : 16:9
    Frame rate : 25.000 fps
    Standard : Component
    Color space : YUV
    Chroma subsampling : 4:2:0
    Bit depth : 8 bits
    Scan type : MBAFF
    Bits/(Pixel*Frame) : 0.128
    Stream size : 138 MiB (91%)
    Color primaries : BT.709
    Transfer characteristics : BT.709
    Matrix coefficients : BT.709

    Audio
    ID : 321 (0x141)
    Menu ID : 8603 (0x219B)
    Format : AC-3
    Format/Info : Audio Coding 3
    Mode extension : CM (complete main)
    Format settings, Endianness : Big
    Codec ID : 6
    Duration : 3mn 51s
    Bit rate mode : Constant
    Bit rate : 192 Kbps
    Channel(s) : 2 channels
    Channel positions : Front: L R
    Sampling rate : 48.0 KHz
    Bit depth : 16 bits
    Compression mode : Lossy
    Delay relative to video : -240ms
    Stream size : 5.29 MiB (4%)
    Language : French

    Hidden Content:
    You must either reply or click 'Like' to see the hidden information contained here.


     
  2. Loading...


  3. 777josem

    777josem ProRes 1080p LPCM V . I . P. Uploader

    Joined:
    Sep 1, 2014
    Messages:
    3,711
    Likes Received:
    2,939
    Thank you so much!:happy:I love the old videos on HD TV.
     
  4. nolynexor88

    nolynexor88 Well-Known Member

    Joined:
    Sep 29, 2015
    Messages:
    1,204
    Likes Received:
    76
    Thank you.:)
     
  5. Grailen

    Grailen Well-Known Member

    Joined:
    Oct 8, 2013
    Messages:
    606
    Likes Received:
    777
    thank you
     
  6. Dreamer

    Dreamer Lana Del Rey ♥ Halsey Capper V . I . P. Uploader

    Joined:
    Dec 4, 2014
    Messages:
    2,883
    Likes Received:
    4,410
    Thank you so much! :victory:
     
  7. Crusha

    Crusha Well-Known Member Capper V . I . P.

    Joined:
    Oct 15, 2014
    Messages:
    2,358
    Likes Received:
    2,652
    thank you
     
  8. fob

    fob Member

    Joined:
    Dec 21, 2013
    Messages:
    120
    Likes Received:
    2
    thanks
     
  9. PETTERTRAN119

    PETTERTRAN119 Member

    Joined:
    Sep 26, 2014
    Messages:
    123
    Likes Received:
    1
    thnkaasssss
     
  10. Zatimi

    Zatimi Active Member

    Joined:
    Aug 27, 2014
    Messages:
    744
    Likes Received:
    143
    thanks
     
  11. jimijims

    jimijims Member

    Joined:
    Jul 13, 2016
    Messages:
    274
    Likes Received:
    12
    thanks
     
  12. Johan Pinzon

    Johan Pinzon Member

    Joined:
    Aug 15, 2016
    Messages:
    304
    Likes Received:
    12
  13. tapions

    tapions Active Member

    Joined:
    Aug 30, 2016
    Messages:
    910
    Likes Received:
    77
    gracias
     
  14. CristianMatias

    CristianMatias HIGH DEFINITION

    Joined:
    Sep 17, 2016
    Messages:
    828
    Likes Received:
    21
  15. couillerot

    couillerot Member

    Joined:
    Sep 7, 2016
    Messages:
    106
    Likes Received:
    3
    thanks !
     
  16. looky

    looky Member

    Joined:
    Mar 22, 2017
    Messages:
    182
    Likes Received:
    4
    gracias.
     
  17. Jetz-v4

    Jetz-v4 Member

    Joined:
    Apr 17, 2017
    Messages:
    45
    Likes Received:
    2
    gracias.
     
  18. hanshermann

    hanshermann Well-Known Member Uploader

    Joined:
    Aug 24, 2016
    Messages:
    5,050
    Likes Received:
    3,901
    wahts taht
     
  19. ROYAL1

    ROYAL1 Member

    Joined:
    Mar 14, 2017
    Messages:
    134
    Likes Received:
    9
    member
     
  20. johan1993234556

    johan1993234556 Member

    Joined:
    Jul 18, 2017
    Messages:
    212
    Likes Received:
    2