Rihanna - Don't Stop The Music | MCM Top-HDTV 1080i-DD2.0 | IboYLDz-HDMania

Discussion in 'MCM & MCM Top HD' started by By.YLDz, Dec 6, 2015.

  1. By.YLDz

    By.YLDz Hayley Williams Fan :) Capper

    Joined:
    Oct 7, 2013
    Messages:
    362
    Likes Received:
    3,789
    ReC. IboYLDz

    [​IMG]

    [​IMG]

    [​IMG]

    [​IMG]

    [​IMG]

    [​IMG]

    [​IMG]

    [​IMG]

    [​IMG]

    Format : MPEG-TS
    File size : 151 MiB
    Duration : 3mn 51s
    Overall bit rate mode : Variable
    Overall bit rate : 5 457 Kbps

    Video
    ID : 310 (0x136)
    Menu ID : 8603 (0x219B)
    Format : AVC
    Format/Info : Advanced Video Codec
    Format profile : [email protected]
    Format settings, CABAC : Yes
    Format settings, ReFrames : 4 frames
    Codec ID : 27
    Duration : 3mn 51s
    Bit rate : 4 993 Kbps
    Width : 1 440 pixels
    Height : 1 080 pixels
    Display aspect ratio : 16:9
    Frame rate : 25.000 fps
    Standard : Component
    Color space : YUV
    Chroma subsampling : 4:2:0
    Bit depth : 8 bits
    Scan type : MBAFF
    Bits/(Pixel*Frame) : 0.128
    Stream size : 138 MiB (91%)
    Color primaries : BT.709
    Transfer characteristics : BT.709
    Matrix coefficients : BT.709

    Audio
    ID : 321 (0x141)
    Menu ID : 8603 (0x219B)
    Format : AC-3
    Format/Info : Audio Coding 3
    Mode extension : CM (complete main)
    Format settings, Endianness : Big
    Codec ID : 6
    Duration : 3mn 51s
    Bit rate mode : Constant
    Bit rate : 192 Kbps
    Channel(s) : 2 channels
    Channel positions : Front: L R
    Sampling rate : 48.0 KHz
    Bit depth : 16 bits
    Compression mode : Lossy
    Delay relative to video : -240ms
    Stream size : 5.29 MiB (4%)
    Language : French

    Hidden Content:
    You must either reply or click 'Like' to see the hidden information contained here.


     
    DiVenturas, ugar, lol211 and 10 others like this.
  2. Loading...


  3. 777josem

    777josem Well-Known Member V . I . P. Uploader

    Joined:
    Sep 1, 2014
    Messages:
    3,148
    Likes Received:
    1,742
    Thank you so much!:happy:I love the old videos on HD TV.
     
  4. nolynexor88

    nolynexor88 Well-Known Member

    Joined:
    Sep 29, 2015
    Messages:
    1,015
    Likes Received:
    48
    Thank you.:)
     
  5. Grailen

    Grailen Well-Known Member

    Joined:
    Oct 8, 2013
    Messages:
    573
    Likes Received:
    710
    thank you
     
  6. Dreamer

    Dreamer Lana Del Rey ♥ Capper V . I . P. Uploader

    Joined:
    Dec 4, 2014
    Messages:
    2,587
    Likes Received:
    2,893
    Thank you so much! :victory:
     
  7. Crusha

    Crusha Well-Known Member Capper

    Joined:
    Oct 15, 2014
    Messages:
    2,350
    Likes Received:
    2,289
    thank you
     
  8. fob

    fob Member

    Joined:
    Dec 21, 2013
    Messages:
    103
    Likes Received:
    1
    thanks
     
  9. PETTERTRAN119

    PETTERTRAN119 Member

    Joined:
    Sep 26, 2014
    Messages:
    123
    Likes Received:
    1
    thnkaasssss
     
  10. Zatimi

    Zatimi Active Member

    Joined:
    Aug 27, 2014
    Messages:
    672
    Likes Received:
    98
    thanks
     
  11. jimijims

    jimijims Member

    Joined:
    Jul 13, 2016
    Messages:
    260
    Likes Received:
    9
    thanks
     
  12. Johan Pinzon

    Johan Pinzon Member

    Joined:
    Aug 15, 2016
    Messages:
    302
    Likes Received:
    11
  13. tapions

    tapions Active Member

    Joined:
    Aug 30, 2016
    Messages:
    857
    Likes Received:
    63
    gracias
     
  14. CristianMatias

    CristianMatias Member

    Joined:
    Sep 17, 2016
    Messages:
    601
    Likes Received:
    19
  15. couillerot

    couillerot Member

    Joined:
    Sep 7, 2016
    Messages:
    97
    Likes Received:
    3
    thanks !
     
  16. looky

    looky Member

    Joined:
    Mar 22, 2017
    Messages:
    182
    Likes Received:
    4
    gracias.
     
  17. Jetz-v4

    Jetz-v4 Member

    Joined:
    Apr 17, 2017
    Messages:
    45
    Likes Received:
    2
    gracias.
     
  18. hanshermann

    hanshermann Well-Known Member

    Joined:
    Aug 24, 2016
    Messages:
    3,804
    Likes Received:
    28
    wahts taht
     
  19. ROYAL1

    ROYAL1 Member

    Joined:
    Mar 14, 2017
    Messages:
    136
    Likes Received:
    9
    member