Rihanna - Don't Stop The Music | MCM Top-HDTV 1080i-DD2.0 | IboYLDz-HDMania

Discussion in 'MCM & MCM Top HD' started by By.YLDz, Dec 6, 2015.

  1. By.YLDz

    By.YLDz Hayley Williams Fan :) Capper

    Joined:
    Oct 7, 2013
    Messages:
    358
    Likes Received:
    3,440
    ReC. IboYLDz

    [​IMG]

    [​IMG]

    [​IMG]

    [​IMG]

    [​IMG]

    [​IMG]

    [​IMG]

    [​IMG]

    [​IMG]

    Format : MPEG-TS
    File size : 151 MiB
    Duration : 3mn 51s
    Overall bit rate mode : Variable
    Overall bit rate : 5 457 Kbps

    Video
    ID : 310 (0x136)
    Menu ID : 8603 (0x219B)
    Format : AVC
    Format/Info : Advanced Video Codec
    Format profile : [email protected]
    Format settings, CABAC : Yes
    Format settings, ReFrames : 4 frames
    Codec ID : 27
    Duration : 3mn 51s
    Bit rate : 4 993 Kbps
    Width : 1 440 pixels
    Height : 1 080 pixels
    Display aspect ratio : 16:9
    Frame rate : 25.000 fps
    Standard : Component
    Color space : YUV
    Chroma subsampling : 4:2:0
    Bit depth : 8 bits
    Scan type : MBAFF
    Bits/(Pixel*Frame) : 0.128
    Stream size : 138 MiB (91%)
    Color primaries : BT.709
    Transfer characteristics : BT.709
    Matrix coefficients : BT.709

    Audio
    ID : 321 (0x141)
    Menu ID : 8603 (0x219B)
    Format : AC-3
    Format/Info : Audio Coding 3
    Mode extension : CM (complete main)
    Format settings, Endianness : Big
    Codec ID : 6
    Duration : 3mn 51s
    Bit rate mode : Constant
    Bit rate : 192 Kbps
    Channel(s) : 2 channels
    Channel positions : Front: L R
    Sampling rate : 48.0 KHz
    Bit depth : 16 bits
    Compression mode : Lossy
    Delay relative to video : -240ms
    Stream size : 5.29 MiB (4%)
    Language : French

    Hidden Content:
    You must either reply or click 'Like' to see the hidden information contained here.


     
    lol211, viniciusx, Jrec and 8 others like this.
  2. Loading...


  3. 777josem

    777josem Well-Known Member Uploader

    Joined:
    Sep 1, 2014
    Messages:
    2,344
    Likes Received:
    1,252
    Thank you so much!:happy:I love the old videos on HD TV.
     
  4. nolynexor88

    nolynexor88 Member

    Joined:
    Sep 29, 2015
    Messages:
    765
    Likes Received:
    23
    Thank you.:)
     
  5. Grailen

    Grailen Well-Known Member

    Joined:
    Oct 8, 2013
    Messages:
    508
    Likes Received:
    382
    thank you
     
  6. Dreamer

    Dreamer ♫ It's Britney Bitch ♫ Capper Uploader

    Joined:
    Dec 4, 2014
    Messages:
    2,136
    Likes Received:
    1,802
    Thank you so much! :victory:
     
  7. Crusha

    Crusha Well-Known Member Capper

    Joined:
    Oct 15, 2014
    Messages:
    2,349
    Likes Received:
    2,065
    thank you
     
  8. fob

    fob Member

    Joined:
    Dec 21, 2013
    Messages:
    63
    Likes Received:
    0
    thanks
     
  9. PETTERTRAN119

    PETTERTRAN119 Member

    Joined:
    Sep 26, 2014
    Messages:
    123
    Likes Received:
    1
    thnkaasssss
     
  10. Zatimi

    Zatimi Active Member

    Joined:
    Aug 27, 2014
    Messages:
    589
    Likes Received:
    57
    thanks
     
  11. jimijims

    jimijims Member

    Joined:
    Jul 13, 2016
    Messages:
    174
    Likes Received:
    4
    thanks
     
  12. Johan Pinzon

    Johan Pinzon Member

    Joined:
    Aug 15, 2016
    Messages:
    288
    Likes Received:
    11
  13. tapions

    tapions Active Member

    Joined:
    Aug 30, 2016
    Messages:
    749
    Likes Received:
    47
    gracias
     
  14. CristianMatias

    CristianMatias Member

    Joined:
    Sep 17, 2016
    Messages:
    535
    Likes Received:
    14
  15. couillerot

    couillerot Member

    Joined:
    Sep 7, 2016
    Messages:
    77
    Likes Received:
    2
    thanks !