Rihanna - Disturbia HD 720p

Discussion in 'SD Live Performances' started by adam dark, Dec 21, 2013.

  1. adam dark

    adam dark Well-Known Member

    Joined:
    Dec 5, 2013
    Messages:
    2,531
    Likes Received:
    3,956
    Rihanna - Disturbia HD 720p

    [​IMG]

    [​IMG]

    [​IMG]

    [​IMG]

    [​IMG]

    [​IMG]

    [​IMG]

    General
    Complete name : Rihanna - Disturbia.mp4
    Format : MPEG-4
    Format profile : Base Media / Version 2
    Codec ID : mp42
    File size : 103 MiB
    Duration : 4mn 28s
    Overall bit rate : 3 232 Kbps
    Encoded date : UTC 2010-12-20 19:01:02
    Tagged date : UTC 2010-12-20 19:39:53

    Video
    ID : 2
    Format : AVC
    Format/Info : Advanced Video Codec
    Format profile : [email protected]
    Format settings, CABAC : No
    Format settings, ReFrames : 2 frames
    Codec ID : avc1
    Codec ID/Info : Advanced Video Coding
    Duration : 4mn 28s
    Bit rate : 2 916 Kbps
    Width : 1 280 pixels
    Height : 720 pixels
    Display aspect ratio : 16:9
    Frame rate mode : Constant
    Frame rate : 23.976 fps
    Color space : YUV
    Chroma subsampling : 4:2:0
    Bit depth : 8 bits
    Scan type : Progressive
    Bits/(Pixel*Frame) : 0.132
    Stream size : 93.2 MiB (90%)
    Language : English
    Encoded date : UTC 2010-12-20 19:34:05
    Tagged date : UTC 2010-12-20 19:39:53
    Color primaries : BT.709
    Transfer characteristics : BT.709
    Matrix coefficients : BT.709

    Audio
    ID : 1
    Format : AAC
    Format/Info : Advanced Audio Codec
    Format profile : LC
    Codec ID : 40
    Duration : 4mn 28s
    Bit rate mode : Constant
    Bit rate : 320 Kbps
    Channel count : 2 channels
    Channel positions : Front: L R
    Sampling rate : 48.0 KHz
    Compression mode : Lossy
    Delay relative to video : 42ms
    Stream size : 9.97 MiB (10%)
    Language : English
    Encoded date : UTC 2010-12-20 19:34:05
    Tagged date : UTC 2010-12-20 19:39:53

    Hidden Content:
    You must reply before you can see the hidden data contained here.
    Credit to the original Capper
     
  2. Loading...


  3. alex

    alex Well-Known Member

    Joined:
    Nov 21, 2013
    Messages:
    4,510
    Likes Received:
    341
    thanks
     
  4. curg

    curg Active Member

    Joined:
    Dec 6, 2013
    Messages:
    624
    Likes Received:
    29
    thanks
     
  5. aaron

    aaron Active Member

    Joined:
    Dec 17, 2013
    Messages:
    208
    Likes Received:
    143
    thank you
     
  6. Jawni

    Jawni Member

    Joined:
    Jan 24, 2014
    Messages:
    721
    Likes Received:
    16
    Thanks for Rihanna :love:
     
  7. Christian Robyn Silva

    Christian Robyn Silva New Member

    Joined:
    Feb 2, 2014
    Messages:
    3
    Likes Received:
    2

    Thanks

    [​IMG]

    [​IMG]

    [​IMG]

    [​IMG]

    [​IMG]

    [​IMG]

    General
    Complete name : Rihanna - Disturbia.mp4
    Format : MPEG-4
    Format profile : Base Media / Version 2
    Codec ID : mp42
    File size : 103 MiB
    Duration : 4mn 28s
    Overall bit rate : 3 232 Kbps
    Encoded date : UTC 2010-12-20 19:01:02
    Tagged date : UTC 2010-12-20 19:39:53

    Video
    ID : 2
    Format : AVC
    Format/Info : Advanced Video Codec
    Format profile : [email protected]
    Format settings, CABAC : No
    Format settings, ReFrames : 2 frames
    Codec ID : avc1
    Codec ID/Info : Advanced Video Coding
    Duration : 4mn 28s
    Bit rate : 2 916 Kbps
    Width : 1 280 pixels
    Height : 720 pixels
    Display aspect ratio : 16:9
    Frame rate mode : Constant
    Frame rate : 23.976 fps
    Color space : YUV
    Chroma subsampling : 4:2:0
    Bit depth : 8 bits
    Scan type : Progressive
    Bits/(Pixel*Frame) : 0.132
    Stream size : 93.2 MiB (90%)
    Language : English
    Encoded date : UTC 2010-12-20 19:34:05
    Tagged date : UTC 2010-12-20 19:39:53
    Color primaries : BT.709
    Transfer characteristics : BT.709
    Matrix coefficients : BT.709

    Audio
    ID : 1
    Format : AAC
    Format/Info : Advanced Audio Codec
    Format profile : LC
    Codec ID : 40
    Duration : 4mn 28s
    Bit rate mode : Constant
    Bit rate : 320 Kbps
    Channel count : 2 channels
    Channel positions : Front: L R
    Sampling rate : 48.0 KHz
    Compression mode : Lossy
    Delay relative to video : 42ms
    Stream size : 9.97 MiB (10%)
    Language : English
    Encoded date : UTC 2010-12-20 19:34:05
    Tagged date : UTC 2010-12-20 19:39:53

    ***Hidden content cannot be quoted.***

    Credit to the original Capper
    [/quote]
     
    BoogyWoogy and pedrodiego like this.
  8. withcap

    withcap Well-Known Member

    Joined:
    Oct 29, 2013
    Messages:
    1,370
    Likes Received:
    70
    Thanks!
     
  9. larzpolanzki

    larzpolanzki Member

    Joined:
    Feb 10, 2014
    Messages:
    412
    Likes Received:
    12
    thank you thank you
     
  10. pedrodiego

    pedrodiego New Member

    Joined:
    Feb 15, 2014
    Messages:
    4
    Likes Received:
    0
     
  11. reyouda1

    reyouda1 Member

    Joined:
    Feb 10, 2014
    Messages:
    140
    Likes Received:
    11
     
  12. BoogyWoogy

    BoogyWoogy Well-Known Member Donor

    Joined:
    Jan 9, 2014
    Messages:
    1,178
    Likes Received:
    5,731
    Thank You !
     
  13. tsm897

    tsm897 Member

    Joined:
    Apr 16, 2014
    Messages:
    129
    Likes Received:
    3
  14. multimediafm

    multimediafm Well-Known Member Donor

    Joined:
    Mar 27, 2014
    Messages:
    8,485
    Likes Received:
    352
  15. adam dark

    adam dark Well-Known Member

    Joined:
    Dec 5, 2013
    Messages:
    2,531
    Likes Received:
    3,956
    you're welcome!
     
  16. Gabriel Teixeira Pinto

    Gabriel Teixeira Pinto Active Member

    Joined:
    Apr 16, 2014
    Messages:
    789
    Likes Received:
    130
  17. Djodjara

    Djodjara Gwen Fan Capper

    Joined:
    Sep 6, 2014
    Messages:
    658
    Likes Received:
    1,091
    thank you so much
     
  18. adam dark

    adam dark Well-Known Member

    Joined:
    Dec 5, 2013
    Messages:
    2,531
    Likes Received:
    3,956
    you're welcome!
     
  19. daronmalakian

    daronmalakian Member

    Joined:
    Sep 30, 2014
    Messages:
    250
    Likes Received:
    10
  20. quake2

    quake2 Active Member

    Joined:
    Oct 11, 2014
    Messages:
    845
    Likes Received:
    31
  21. ronald

    ronald Member

    Joined:
    Dec 27, 2013
    Messages:
    57
    Likes Received:
    0
    thanks bro!!