Rihanna - Diamonds (Deluxe Music HD-1080i-DD2.0)-Olgold

Discussion in 'DELUXE MUSIC HD' started by Olgold, Aug 23, 2015.

  1. Olgold

    Olgold Well-Known Member Capper

    Joined:
    Aug 19, 2015
    Messages:
    386
    Likes Received:
    1,332
    [​IMG]
    General
    Format : MPEG-TS
    File size : 180 MiB
    Duration : 4mn 34s
    Overall bit rate mode : Variable
    Overall bit rate : 5 464 Kbps

    Video
    IFormat : AVC
    Format/Info : Advanced Video Codec
    Format profile : High@L4
    Format settings, CABAC : Yes
    Format settings, ReFrames : 4 frames
    Duration : 4mn 33s
    Bit rate : 4 806 Kbps
    Width : 1 280 pixels
    Height : 1 080 pixels
    Display aspect ratio : 16:9
    Frame rate : 25.000 fps
    Standard : Component
    Color space : YUV
    Chroma subsampling : 4:2:0
    Bit depth : 8 bits
    Scan type : Interlaced
    Scan order : Top Field First
    Bits/(Pixel*Frame) : 0.139
    Stream size : 157 MiB (87%)
    Color range : Limited

    Audio
    Format : AC-3
    Format/Info : Audio Coding 3
    Mode extension : CM (complete main)
    Format settings, Endianness : Big
    Duration : 4mn 34s
    Bit rate mode : Constant
    Bit rate : 384 Kbps
    Channel(s) : 2 channels
    Channel positions : Front: L R
    Sampling rate : 48.0 KHz
    Compression mode : Lossy
    Delay relative to video : -184ms
    Stream size : 12.6 MiB (7%)
    Language : German
    Language, more info : Clean effects

    Hidden Content:
    You must reply before you can see the hidden data contained here.
     
  2. Loading...


  3. Dreamer

    Dreamer Well-Known Member Capper Uploader

    Joined:
    Dec 4, 2014
    Messages:
    2,293
    Likes Received:
    2,138
    Thank you
     
  4. Grailen

    Grailen Well-Known Member

    Joined:
    Oct 8, 2013
    Messages:
    549
    Likes Received:
    582
    thank you
     
  5. Joseph

    Joseph Active Member

    Joined:
    Dec 10, 2013
    Messages:
    733
    Likes Received:
    153
    thank you
     
  6. Crusha

    Crusha Well-Known Member Capper

    Joined:
    Oct 15, 2014
    Messages:
    2,350
    Likes Received:
    2,176
    thank you
     
  7. rhea

    rhea Well-Known Member

    Joined:
    Jan 6, 2014
    Messages:
    5,406
    Likes Received:
    265
    thank you so much!
     
  8. PETTERTRAN119

    PETTERTRAN119 Member

    Joined:
    Sep 26, 2014
    Messages:
    123
    Likes Received:
    1
  9. Snorom6

    Snorom6 Well-Known Member Uploader

    Joined:
    Dec 17, 2015
    Messages:
    4,245
    Likes Received:
    3,789
  10. aura dione

    aura dione New Member

    Joined:
    Apr 2, 2016
    Messages:
    2
    Likes Received:
    0
    gracias
    :cool:
     
  11. tapions

    tapions Active Member

    Joined:
    Aug 30, 2016
    Messages:
    769
    Likes Received:
    56
    gracias
    gracias
     
  12. BinhTVT

    BinhTVT Member

    Joined:
    Jun 30, 2015
    Messages:
    176
    Likes Received:
    3
    thanks
     
  13. zyao

    zyao Member

    Joined:
    Oct 12, 2016
    Messages:
    138
    Likes Received:
    0
    thanks so much
     
  14. kidtoy12

    kidtoy12 Member

    Joined:
    Mar 3, 2016
    Messages:
    113
    Likes Received:
    2
    thanks so much
     
  15. hanshermann

    hanshermann Active Member

    Joined:
    Aug 24, 2016
    Messages:
    1,502
    Likes Received:
    5
    wahts taht
     
  16. rihhanna

    rihhanna Member

    Joined:
    Mar 14, 2017
    Messages:
    32
    Likes Received:
    0
    csddddddddddddd