Ricky Martin - She Bangs (MTVNHD 1080i)

Discussion in 'MTVNHD' started by DETOX, Apr 16, 2014.

  1. DETOX

    DETOX Well-Known Member V . I . P. Uploader

    Joined:
    Feb 20, 2014
    Messages:
    2,593
    Likes Received:
    12,199
    [​IMG]
    Code:
    General
    ID                                       : 8900 (0x22C4)
    Complete name                            : Ricky Martin - She Bangs (MTVNHD 1080i).ts
    Format                                   : MPEG-TS
    File size                                : 285 MiB
    Duration                                 : 4mn 5s
    Overall bit rate mode                    : Variable
    Overall bit rate                         : 9 736 Kbps
    
    Video
    ID                                       : 326 (0x146)
    Menu ID                                  : 12106 (0x2F4A)
    Format                                   : AVC
    Format/Info                              : Advanced Video Codec
    Format profile                           : [email protected]
    Format settings, CABAC                   : Yes
    Format settings, ReFrames                : 4 frames
    Codec ID                                 : 27
    Duration                                 : 4mn 5s
    Bit rate                                 : 8 867 Kbps
    Width                                    : 1 920 pixels
    Height                                   : 1 080 pixels
    Display aspect ratio                     : 16:9
    Frame rate                               : 25.000 fps
    Color space                              : YUV
    Chroma subsampling                       : 4:2:0
    Bit depth                                : 8 bits
    Scan type                                : Interlaced
    Scan order                               : Top Field First
    Bits/(Pixel*Frame)                       : 0.171
    Stream size                              : 259 MiB (91%)
    Color range                              : Limited
    Color primaries                          : BT.709
    Transfer characteristics                 : BT.709
    Matrix coefficients                      : BT.709
    
    Audio
    ID                                       : 406 (0x196)
    Menu ID                                  : 12106 (0x2F4A)
    Format                                   : AC-3
    Format/Info                              : Audio Coding 3
    Mode extension                           : CM (complete main)
    Format settings, Endianness              : Big
    Codec ID                                 : 6
    Duration                                 : 4mn 5s
    Bit rate mode                            : Constant
    Bit rate                                 : 384 Kbps
    Channel(s)                               : 2 channels
    Channel positions                        : Front: L R
    Sampling rate                            : 48.0 KHz
    Bit depth                                : 16 bits
    Compression mode                         : Lossy
    Delay relative to video                  : 76ms
    Stream size                              : 11.2 MiB (4%)
    Language                                 : English
    Language, more info                      : Clean effects
    Hidden Content:
    You must reply before you can see the hidden data contained here.
     
    Last edited: Sep 4, 2015
  2. Loading...


  3. adam dark

    adam dark Well-Known Member

    Joined:
    Dec 5, 2013
    Messages:
    2,369
    Likes Received:
    3,610
  4. talata

    talata Member

    Joined:
    Nov 14, 2013
    Messages:
    255
    Likes Received:
    5
    Thanks !
     
  5. ericbook

    ericbook Member

    Joined:
    Jan 3, 2014
    Messages:
    150
    Likes Received:
    1
    gracias por el vidoe amigos
     
  6. TrendMusic

    TrendMusic Active Member

    Joined:
    Oct 7, 2013
    Messages:
    848
    Likes Received:
    40
  7. lifevirgin

    lifevirgin Active Member

    Joined:
    Feb 15, 2014
    Messages:
    362
    Likes Received:
    31
     
  8. tequest

    tequest Member

    Joined:
    May 8, 2014
    Messages:
    60
    Likes Received:
    15
    good video!
     
  9. isham023

    isham023 Well-Known Member

    Joined:
    Nov 30, 2013
    Messages:
    1,993
    Likes Received:
    42
    Thanks
     
  10. Negobom

    Negobom Member

    Joined:
    Jun 5, 2014
    Messages:
    60
    Likes Received:
    0
    Thaaaanx!
     
  11. Manniday

    Manniday Member

    Joined:
    Jun 8, 2014
    Messages:
    22
    Likes Received:
    0
  12. dapape

    dapape Member

    Joined:
    Jun 9, 2014
    Messages:
    134
    Likes Received:
    1
  13. kyo23

    kyo23 Member

    Joined:
    Jan 31, 2014
    Messages:
    270
    Likes Received:
    4
    yeah thanks
     
  14. Pra

    Pra Member

    Joined:
    Jun 19, 2014
    Messages:
    31
    Likes Received:
    3
    Thanks
     
  15. diego_123

    diego_123 Member

    Joined:
    Dec 15, 2013
    Messages:
    489
    Likes Received:
    9
    thanks.
     
  16. jovany

    jovany New Member

    Joined:
    Jul 12, 2014
    Messages:
    16
    Likes Received:
    0
  17. elejido10

    elejido10 Member

    Joined:
    Oct 27, 2013
    Messages:
    189
    Likes Received:
    0
  18. nostalgicnation01

    nostalgicnation01 Member

    Joined:
    Jul 16, 2014
    Messages:
    50
    Likes Received:
    0
  19. Dyoggo

    Dyoggo Member

    Joined:
    May 14, 2014
    Messages:
    333
    Likes Received:
    4
    THANKS
     
  20. multimediafm

    multimediafm Well-Known Member Donor

    Joined:
    Mar 27, 2014
    Messages:
    8,058
    Likes Received:
    320
  21. OERB

    OERB Member

    Joined:
    Jan 30, 2014
    Messages:
    179
    Likes Received:
    11
    aaaaaaaaaaaaaaaaaaa