Ricky Martin - Livin' La Vida Loca (MTVNHD 1080i)

Discussion in 'MTVNHD' started by DETOX, Apr 15, 2014.

  1. DETOX

    DETOX Well-Known Member V . I . P. Uploader

    Joined:
    Feb 20, 2014
    Messages:
    2,888
    Likes Received:
    18,550
    [​IMG]
    Code:
    General
    ID                                       : 6 (0x6)
    Complete name                            : Ricky Martin - Livin' La Vida Loca (MTVNHD 1080i).ts
    Format                                   : MPEG-TS
    File size                                : 228 MiB
    Duration                                 : 3mn 39s
    Overall bit rate mode                    : Variable
    Overall bit rate                         : 8 698 Kbps
    
    Video
    ID                                       : 326 (0x146)
    Menu ID                                  : 1 (0x1)
    Format                                   : AVC
    Format/Info                              : Advanced Video Codec
    Format profile                           : [email protected]
    Format settings, CABAC                   : Yes
    Format settings, ReFrames                : 4 frames
    Codec ID                                 : 27
    Duration                                 : 3mn 39s
    Bit rate                                 : 7 880 Kbps
    Width                                    : 1 920 pixels
    Height                                   : 1 080 pixels
    Display aspect ratio                     : 16:9
    Frame rate                               : 25.000 fps
    Color space                              : YUV
    Chroma subsampling                       : 4:2:0
    Bit depth                                : 8 bits
    Scan type                                : Interlaced
    Scan order                               : Top Field First
    Bits/(Pixel*Frame)                       : 0.152
    Stream size                              : 207 MiB (91%)
    Language                                 : English
    Color range                              : Limited
    Color primaries                          : BT.709
    Transfer characteristics                 : BT.709
    Matrix coefficients                      : BT.709
    
    Audio
    ID                                       : 406 (0x196)
    Menu ID                                  : 1 (0x1)
    Format                                   : AC-3
    Format/Info                              : Audio Coding 3
    Mode extension                           : CM (complete main)
    Format settings, Endianness              : Big
    Codec ID                                 : 129
    Duration                                 : 3mn 39s
    Bit rate mode                            : Constant
    Bit rate                                 : 384 Kbps
    Channel(s)                               : 2 channels
    Channel positions                        : Front: L R
    Sampling rate                            : 48.0 KHz
    Bit depth                                : 16 bits
    Compression mode                         : Lossy
    Delay relative to video                  : 149ms
    Stream size                              : 10.1 MiB (4%)
    Language                                 : German
    Hidden Content:
    You must reply before you can see the hidden data contained here.
     
    Last edited: Sep 4, 2015
  2. Loading...

    Similar Threads
    1. DETOX
      Replies:
      47
      Views:
      1,639

  3. iqson

    iqson Active Member

    Joined:
    Dec 30, 2013
    Messages:
    196
    Likes Received:
    68
    Thanks
     
  4. ericbook

    ericbook Member

    Joined:
    Jan 3, 2014
    Messages:
    202
    Likes Received:
    3
    gracias!! :D
     
  5. adam dark

    adam dark Video Music Lover <3 V . I . P.

    Joined:
    Dec 5, 2013
    Messages:
    2,563
    Likes Received:
    4,354
  6. TrendMusic

    TrendMusic Well-Known Member

    Joined:
    Oct 7, 2013
    Messages:
    1,167
    Likes Received:
    74
  7. Henry Lee

    Henry Lee Member

    Joined:
    Apr 5, 2014
    Messages:
    38
    Likes Received:
    1
    Ricky *_*
     
  8. lifevirgin

    lifevirgin Active Member

    Joined:
    Feb 15, 2014
    Messages:
    365
    Likes Received:
    31
     
  9. zemino

    zemino Member

    Joined:
    Apr 26, 2014
    Messages:
    121
    Likes Received:
    2
    thanks
     
  10. isham023

    isham023 Well-Known Member

    Joined:
    Nov 30, 2013
    Messages:
    2,202
    Likes Received:
    48
    Thanks
     
  11. zota_mailte

    zota_mailte New Member

    Joined:
    Jun 9, 2014
    Messages:
    1
    Likes Received:
    0
  12. dapape

    dapape Member

    Joined:
    Jun 9, 2014
    Messages:
    134
    Likes Received:
    1
  13. Pra

    Pra Member

    Joined:
    Jun 19, 2014
    Messages:
    42
    Likes Received:
    5
    Ole Ole Ole Ole.......................
     
  14. diego_123

    diego_123 Member

    Joined:
    Dec 15, 2013
    Messages:
    507
    Likes Received:
    9
    thanks.
     
  15. jovany

    jovany New Member

    Joined:
    Jul 12, 2014
    Messages:
    16
    Likes Received:
    0
  16. Gabriel Teixeira Pinto

    Gabriel Teixeira Pinto Active Member

    Joined:
    Apr 16, 2014
    Messages:
    827
    Likes Received:
    150
  17. nostalgicnation01

    nostalgicnation01 Member

    Joined:
    Jul 16, 2014
    Messages:
    50
    Likes Received:
    0
  18. rickymiamor

    rickymiamor New Member

    Joined:
    Jul 18, 2014
    Messages:
    26
    Likes Received:
    0
    Thanks so much.
     
  19. elejido10

    elejido10 Member

    Joined:
    Oct 27, 2013
    Messages:
    189
    Likes Received:
    0
  20. slill

    slill Member

    Joined:
    Jul 25, 2014
    Messages:
    966
    Likes Received:
    13
    thanks for sharing
     
  21. guillaume

    guillaume Member

    Joined:
    Jan 4, 2014
    Messages:
    234
    Likes Received:
    24
    :):)