Ricky Martin feat. Yotuel - La Mordidita (BridgeHD-1080i-MP2-Olgold)-HDMania

Discussion in 'Bridge HD' started by Olgold, Oct 10, 2016.

  1. Olgold

    Olgold Well-Known Member Capper

    Joined:
    Aug 19, 2015
    Messages:
    436
    Likes Received:
    1,709
    Ricky Martin feat. Yotuel - La Mordidita
    [​IMG]
    General
    Format : MPEG-TS
    File size : 160 MiB
    Duration : 3 min 24 s
    Overall bit rate mode : Variable
    Overall bit rate : 6 404 kb/s

    Video
    Format : AVC
    Format/Info : Advanced Video Codec
    Format profile : [email protected]
    Format settings, CABAC : Yes
    Format settings, ReFrames : 4 frames
    Duration : 3 min 23 s
    Bit rate : 5 894 kb/s
    Width : 1 920 pixels
    Height : 1 080 pixels
    Display aspect ratio : 16:9
    Frame rate : 25.000 FPS
    Standard : Component
    Color space : YUV
    Chroma subsampling : 4:2:0
    Bit depth : 8 bits
    Scan type : Interlaced
    Scan type, store method : Separated fields
    Scan order : Top Field First
    Bits/(Pixel*Frame) : 0.114
    Stream size : 143 MiB (90%)
    Color range : Limited

    Audio
    Format : MPEG Audio
    Format version : Version 1
    Format profile : Layer 2
    Duration : 3 min 24 s
    Bit rate mode : Constant
    Bit rate : 192 kb/s
    Channel(s) : 2 channels
    Sampling rate : 48.0 kHz
    Compression mode : Lossy
    Delay relative to video : -704 ms
    Stream size : 4.69 MiB (3%)
    Password: Olgold

    Hidden Content:
    You must reply before you can see the hidden data contained here.
     
    lyana94, CELOBRAZiL and rhea like this.
  2. Loading...


  3. rhea

    rhea Well-Known Member

    Joined:
    Jan 6, 2014
    Messages:
    6,967
    Likes Received:
    758
    thank you so much
     
  4. CELOBRAZiL

    CELOBRAZiL Well-Known Member Capper V . I . P. Donor

    Joined:
    Oct 2, 2013
    Messages:
    4,097
    Likes Received:
    12,900
    Thank you so much! :)
     
  5. saws9

    saws9 Member

    Joined:
    Feb 16, 2016
    Messages:
    39
    Likes Received:
    3
    thamks
     
  6. Bextorian

    Bextorian Member

    Joined:
    Oct 29, 2016
    Messages:
    45
    Likes Received:
    0
    Thanks!
     
  7. toritocar

    toritocar New Member

    Joined:
    Jan 9, 2017
    Messages:
    5
    Likes Received:
    0
    thnx :))
     
  8. lyana94

    lyana94 Well-Known Member

    Joined:
    Jul 5, 2017
    Messages:
    1,210
    Likes Received:
    41
    thanks