Renaud & Axelle Red - Manhattan / Kaboul (720p W9 HD)

Discussion in 'W9 HD' started by jimijims, Jul 14, 2016.

  1. jimijims

    jimijims Member

    Joined:
    Jul 13, 2016
    Messages:
    175
    Likes Received:
    4
    [​IMG]

    Hidden Content:
    You must reply before you can see the hidden data contained here.
    General
    Format : MPEG-4
    Format profile : Base Media / Version 2
    Codec ID : mp42 (mp41/mp42/isom)
    File size : 322 MiB
    Duration : 3mn 40s
    Overall bit rate mode : Variable
    Overall bit rate : 12.3 Mbps
    Movie name : Renaud & Axelle Red - Manhattan/Kaboul
    Encoded date : UTC 2016-07-14 17:41:01
    Tagged date : UTC 2016-07-14 17:41:54


    Video
    ID : 2
    Format : AVC
    Format/Info : Advanced Video Codec
    Format profile : [email protected]
    Format settings, CABAC : Yes
    Format settings, ReFrames : 2 frames
    Format settings, GOP : M=1, N=30
    Codec ID : avc1
    Codec ID/Info : Advanced Video Coding
    Duration : 3mn 40s
    Bit rate mode : Variable
    Bit rate : 12.0 Mbps
    Maximum bit rate : 768 Kbps
    Width : 1 280 pixels
    Height : 720 pixels
    Display aspect ratio : 16:9
    Frame rate mode : Constant
    Frame rate : 25.000 fps
    Color space : YUV
    Chroma subsampling : 4:2:0
    Bit depth : 8 bits
    Scan type : Progressive
    Bits/(Pixel*Frame) : 0.521
    Stream size : 315 MiB (98%)
    Title : Core Media Video
    Encoded date : UTC 2016-07-14 17:41:01
    Tagged date : UTC 2016-07-14 17:41:54
    Color range : Limited
    Color primaries : BT.709
    Transfer characteristics : BT.709
    Matrix coefficients : BT.709

    Audio
    ID : 1
    Format : AAC
    Format/Info : Advanced Audio Codec
    Format profile : LC
    Codec ID : 40
    Duration : 3mn 40s
    Source duration : 3mn 40s
    Bit rate mode : Constant
    Bit rate : 256 Kbps
    Channel(s) : 2 channels
    Channel positions : Front: L R
    Sampling rate : 48.0 KHz
    Frame rate : 46.875 fps (1024 spf)
    Compression mode : Lossy
    Stream size : 6.61 MiB (2%)
    Source stream size : 6.61 MiB (2%)
    Title : Core Media Audio
    Language : French
    Encoded date : UTC 2016-07-14 17:41:01
    Tagged date : UTC 2016-07-14 17:41:54
     
    Last edited: Jul 15, 2016
  2. couillerot

    couillerot Member

    Joined:
    Sep 7, 2016
    Messages:
    79
    Likes Received:
    2
    thanks !!!