Red Hot Chili Peppers - Give It Away (MTVPulse-1080i-DD2.0)-Olgold

Discussion in 'MTV PULSE HD' started by Olgold, Aug 27, 2015.

  1. Olgold

    Olgold Well-Known Member Capper

    Joined:
    Aug 19, 2015
    Messages:
    386
    Likes Received:
    1,303
    [​IMG]
    General
    Format : MPEG-TS
    File size : 299 MiB
    Duration : 4mn 31s
    Overall bit rate mode : Variable
    Overall bit rate : 9 255 Kbps

    Video
    Format : AVC
    Format/Info : Advanced Video Codec
    Format profile : [email protected]
    Format settings, CABAC : Yes
    Format settings, ReFrames : 4 frames
    Duration : 4mn 31s
    Bit rate : 8 539 Kbps
    Width : 1 920 pixels
    Height : 1 080 pixels
    Display aspect ratio : 16:9
    Frame rate : 25.000 fps
    Standard : Component
    Color space : YUV
    Chroma subsampling : 4:2:0
    Bit depth : 8 bits
    Scan type : MBAFF
    Scan order : Top Field First
    Bits/(Pixel*Frame) : 0.165
    Stream size : 276 MiB (92%)
    Color range : Limited

    Audio
    Format : AC-3
    Format/Info : Audio Coding 3
    Mode extension : CM (complete main)
    Format settings, Endianness : Big
    Duration : 4mn 31s
    Bit rate mode : Constant
    Bit rate : 256 Kbps
    Channel(s) : 2 channels
    Channel positions : Front: L R
    Sampling rate : 48.0 KHz
    Compression mode : Lossy
    Delay relative to video : 152ms
    Stream size : 8.29 MiB (3%)
    Language : French

    Hidden Content:
    You must reply before you can see the hidden data contained here.
     
  2. 777josem

    777josem Well-Known Member Uploader

    Joined:
    Sep 1, 2014
    Messages:
    2,341
    Likes Received:
    1,253
    :DThank you so much!
     
  3. rhea

    rhea Well-Known Member

    Joined:
    Jan 6, 2014
    Messages:
    5,193
    Likes Received:
    250
    thank you so much
     
  4. Crusha

    Crusha Well-Known Member Capper

    Joined:
    Oct 15, 2014
    Messages:
    2,349
    Likes Received:
    2,064
    thank you
     
  5. Flaxdevil

    Flaxdevil Member

    Joined:
    May 25, 2014
    Messages:
    205
    Likes Received:
    6
    RHCP!
     
  6. tsm897

    tsm897 Member

    Joined:
    Apr 16, 2014
    Messages:
    129
    Likes Received:
    3
    thank you
     
  7. slash

    slash Member

    Joined:
    Mar 17, 2016
    Messages:
    63
    Likes Received:
    1
    thanks
     
  8. alvarojam

    alvarojam New Member

    Joined:
    Mar 21, 2016
    Messages:
    20
    Likes Received:
    4
    thanks a lot for sharing this!!!
     
  9. cero

    cero Member

    Joined:
    Nov 1, 2013
    Messages:
    82
    Likes Received:
    0
    cool song
     
  10. jhap1982

    jhap1982 New Member

    Joined:
    Jul 11, 2016
    Messages:
    15
    Likes Received:
    1
    Thanks!
     
  11. vaci

    vaci Member

    Joined:
    Jul 16, 2016
    Messages:
    65
    Likes Received:
    2
    Thank
     
  12. killers23

    killers23 Active Member

    Joined:
    Feb 27, 2015
    Messages:
    401
    Likes Received:
    62
  13. juanmarhcp

    juanmarhcp New Member

    Joined:
    Aug 29, 2016
    Messages:
    5
    Likes Received:
    0
  14. tapions

    tapions Active Member

    Joined:
    Aug 30, 2016
    Messages:
    749
    Likes Received:
    47
    gracias
     
  15. skyisup

    skyisup Member

    Joined:
    Jul 21, 2016
    Messages:
    87
    Likes Received:
    0
    Thanks
     
  16. danicoteca

    danicoteca Member

    Joined:
    Sep 10, 2016
    Messages:
    159
    Likes Received:
    17
  17. yilder1

    yilder1 Active Member

    Joined:
    Aug 25, 2016
    Messages:
    235
    Likes Received:
    27
    thanks
     
  18. diego1999

    diego1999 New Member

    Joined:
    Saturday
    Messages:
    6
    Likes Received:
    0