Red Hot Chili Peppers - Dani California 1080i [DroneSmelter]

Discussion in 'Music Videos' started by DroneSmelter, Jan 10, 2014.

  1. DroneSmelter

    DroneSmelter Member Capper

    Joined:
    Dec 31, 2013
    Messages:
    47
    Likes Received:
    114
    CLEAN - NO LOGOS
    [​IMG]
    Code:
    Format                                  : MPEG-TS
    File size                                : 627 MiB
    Duration                                : 4mn 46s
    Overall bit rate mode                    : Variable
    Overall bit rate                        : 18.3 Mbps
    
    Format                                  : MPEG Video
    Format version                          : Version 2
    Format profile                          : [email protected]
    Format settings, BVOP                    : Yes
    Format settings, Matrix                  : Custom
    Format settings, GOP                    : Variable
    Codec ID                                : 2
    Duration                                : 4mn 46s
    Bit rate mode                            : Variable
    Bit rate                                : 17.0 Mbps
    Maximum bit rate                        : 38.8 Mbps
    Width                                    : 1 920 pixels
    Height                                  : 1 080 pixels
    Display aspect ratio                    : 16:9
    Frame rate                              : 29.970 fps
    Standard                                : Component
    Color space                              : YUV
    Chroma subsampling                      : 4:2:0
    Bit depth                                : 8 bits
    Scan type                                : Interlaced
    Scan order                              : Bottom Field First
    Compression mode                        : Lossy
    Bits/(Pixel*Frame)                      : 0.274
    Time code of first frame                : 00:00:00:00
    Time code source                        : Group of pictures header
    Stream size                              : 582 MiB (93%)
    
    Format                                  : AC-3
    Format/Info                              : Audio Coding 3
    Mode extension                          : CM (complete main)
    Format settings, Endianness              : Big
    Codec ID                                : 129
    Duration                                : 4mn 46s
    Bit rate mode                            : Constant
    Bit rate                                : 384 Kbps
    Channel(s)                              : 6 channels
    Channel positions                        : Front: L C R, Side: L R, LFE
    Sampling rate                            : 48.0 KHz
    Bit depth                                : 16 bits
    Compression mode                        : Lossy
    Stream size                              : 13.1 MiB (2%)
    Links:
    Hidden Content:
    You must reply before you can see the hidden data contained here.
     
    Last edited: Jan 25, 2014
    jack, Brand21, rchp182 and 7 others like this.
  2. pablo palormo

    pablo palormo Member

    Joined:
    Oct 27, 2013
    Messages:
    177
    Likes Received:
    2
    Thanks You! :victory:
     
  3. alex

    alex Well-Known Member

    Joined:
    Nov 21, 2013
    Messages:
    4,573
    Likes Received:
    370
    thanks:greedy:
     
  4. tsm897

    tsm897 Member

    Joined:
    Apr 16, 2014
    Messages:
    137
    Likes Received:
    5
  5. ricardoma

    ricardoma Member

    Joined:
    Apr 16, 2014
    Messages:
    39
    Likes Received:
    1
    tx
     
  6. nabruk

    nabruk Member

    Joined:
    May 11, 2014
    Messages:
    36
    Likes Received:
    0
    thanks
     
  7. BrandoMoscoso

    BrandoMoscoso Member

    Joined:
    Sep 23, 2014
    Messages:
    16
    Likes Received:
    0
  8. gstnedgrdrch93

    gstnedgrdrch93 Member

    Joined:
    Oct 12, 2014
    Messages:
    55
    Likes Received:
    1
     
  9. mizdot

    mizdot Well-Known Member

    Joined:
    Nov 13, 2014
    Messages:
    1,971
    Likes Received:
    54
    tnx man , *EDIT* oops file gone ? "no such file"
    googled it and got a mirror , tnx anyway for great work man
     
    Last edited: Dec 4, 2014
  10. Vinny

    Vinny Well-Known Member

    Joined:
    Dec 26, 2013
    Messages:
    3,617
    Likes Received:
    30
    Thank U!
     
  11. Emazing

    Emazing Member

    Joined:
    Nov 6, 2013
    Messages:
    48
    Likes Received:
    0
    thanks to the capper
    edit: link dead
     
  12. PauloBruno

    PauloBruno Member

    Joined:
    Jun 12, 2014
    Messages:
    54
    Likes Received:
    0
    Link off ;(
     
  13. lpplus

    lpplus LP & MET Fan

    Joined:
    Sep 28, 2014
    Messages:
    812
    Likes Received:
    3,228
    Thank you
     
  14. PauloBruno

    PauloBruno Member

    Joined:
    Jun 12, 2014
    Messages:
    54
    Likes Received:
    0
    Link OFF :( Please up again
     
  15. slill

    slill Active Member

    Joined:
    Jul 25, 2014
    Messages:
    1,097
    Likes Received:
    16
    thanks
     
  16. quake2

    quake2 Well-Known Member

    Joined:
    Oct 11, 2014
    Messages:
    1,152
    Likes Received:
    75
    ok thx
     
  17. vidman

    vidman Member

    Joined:
    Oct 20, 2015
    Messages:
    99
    Likes Received:
    8
    Thank you.
     
  18. Christian Antichrist

    Christian Antichrist Member

    Joined:
    Jan 3, 2016
    Messages:
    253
    Likes Received:
    3
  19. Leonardo7777777

    Leonardo7777777 Member

    Joined:
    Jan 3, 2016
    Messages:
    372
    Likes Received:
    17
    thank you
     
  20. Harry62

    Harry62 New Member

    Joined:
    Dec 9, 2015
    Messages:
    12
    Likes Received:
    1
    The first song of RHCP I listened was Californication. Beautiful lyrics & awesome voice!