Real 2 Real - I Like To Move It | RFM TV-HD 1080i-DD2.0 | IboYLDz-HDMania

Discussion in 'MCM & MCM Top HD' started by By.YLDz, Dec 9, 2015.

  1. By.YLDz

    By.YLDz Hayley Williams Fan :) Capper

    Joined:
    Oct 7, 2013
    Messages:
    362
    Likes Received:
    3,789
    CappeD IboYLDz

    [​IMG]

    [​IMG]

    [​IMG]

    [​IMG]

    [​IMG]

    [​IMG]

    Format : MPEG-TS
    File size : 303 MiB
    Duration : 3mn 53s
    Overall bit rate mode : Variable
    Overall bit rate : 10.9 Mbps

    Video
    ID : 1010 (0x3F2)
    Menu ID : 8610 (0x21A2)
    Format : AVC
    Format/Info : Advanced Video Codec
    Format profile : [email protected]
    Format settings, CABAC : Yes
    Format settings, ReFrames : 4 frames
    Codec ID : 27
    Duration : 3mn 53s
    Bit rate : 10.2 Mbps
    Width : 1 440 pixels
    Height : 1 080 pixels
    Display aspect ratio : 16:9
    Frame rate : 25.000 fps
    Standard : Component
    Color space : YUV
    Chroma subsampling : 4:2:0
    Bit depth : 8 bits
    Scan type : MBAFF
    Bits/(Pixel*Frame) : 0.262
    Stream size : 283 MiB (93%)
    Color primaries : BT.709
    Transfer characteristics : BT.709
    Matrix coefficients : BT.709

    Audio
    ID : 1021 (0x3FD)
    Menu ID : 8610 (0x21A2)
    Format : AC-3
    Format/Info : Audio Coding 3
    Mode extension : CM (complete main)
    Format settings, Endianness : Big
    Codec ID : 6
    Duration : 3mn 53s
    Bit rate mode : Constant
    Bit rate : 192 Kbps
    Channel(s) : 2 channels
    Channel positions : Front: L R
    Sampling rate : 48.0 KHz
    Bit depth : 16 bits
    Compression mode : Lossy
    Delay relative to video : -40ms
    Stream size : 5.33 MiB (2%)
    Language : French

    Hidden Content:
    You must either reply or click 'Like' to see the hidden information contained here.


     
  2. rhea

    rhea Well-Known Member

    Joined:
    Jan 6, 2014
    Messages:
    5,861
    Likes Received:
    423
    thank you so much! :)
     
  3. Crusha

    Crusha Well-Known Member Capper

    Joined:
    Oct 15, 2014
    Messages:
    2,350
    Likes Received:
    2,289
    amazing

    thank you :)
     
  4. Ivan1980

    Ivan1980 Member

    Joined:
    Jan 9, 2016
    Messages:
    95
    Likes Received:
    1
    thank you :)
     
  5. multimediafm

    multimediafm Well-Known Member Donor

    Joined:
    Mar 27, 2014
    Messages:
    8,865
    Likes Received:
    379
    Thanks :)
    Real 2 Real - I Like To Move It | RFM TV-HD 1080i-DD2.0 | IboYLDz-HDMania
     
  6. Pavulon

    Pavulon Well-Known Member

    Joined:
    Mar 22, 2016
    Messages:
    1,967
    Likes Received:
    119
    thanks
     
  7. tapions

    tapions Active Member

    Joined:
    Aug 30, 2016
    Messages:
    857
    Likes Received:
    63
    gracias
     
  8. badine82

    badine82 Member

    Joined:
    Oct 24, 2015
    Messages:
    252
    Likes Received:
    5
    merci
     
  9. zorgs777

    zorgs777 Member

    Joined:
    Feb 18, 2017
    Messages:
    67
    Likes Received:
    0
    thank you