RBD - Aún Hay Algo (1080p Upscale)

Discussion in 'UPSCALED' started by TEXTCARL, May 18, 2017.

?

Are you enjoying the RBD's videos quality?

  1. Yes, the best till now!

  2. Yes

  3. No

Results are only viewable after voting.
  1. lobeitor

    lobeitor Well-Known Member

    Joined:
    Sep 26, 2016
    Messages:
    1,217
    Likes Received:
    25
  2. dinhotwain

    dinhotwain Well-Known Member

    Joined:
    Jan 1, 2015
    Messages:
    1,166
    Likes Received:
    127
  3. CristianMatias

    CristianMatias HIGH DEFINITION

    Joined:
    Sep 17, 2016
    Messages:
    1,189
    Likes Received:
    60
    Bella Canción MKV 1080p
     
  4. nathanjuniorrf28

    nathanjuniorrf28 ToxicNTN

    Joined:
    Jul 24, 2016
    Messages:
    311
    Likes Received:
    87
  5. inthezon3

    inthezon3 Member

    Joined:
    Aug 30, 2016
    Messages:
    60
    Likes Received:
    4
    graciasssssssssssssssssssssss
     
  6. jorotre

    jorotre Active Member

    Joined:
    Dec 21, 2015
    Messages:
    967
    Likes Received:
    42
    thanks
     
  7. rhuancesar

    rhuancesar Member

    Joined:
    Dec 6, 2017
    Messages:
    255
    Likes Received:
    13
    thnkssssssssssss
     
  8. marcheta88

    marcheta88 Member

    Joined:
    Jan 5, 2017
    Messages:
    46
    Likes Received:
    9
    Muchas gracias por esto[​IMG]
    [​IMG]
    General
    Format : MPEG-4
    Format profile : Base Media / Version 2
    Codec ID : mp42
    File size : 384 MiB
    Duration : 3mn 41s
    Overall bit rate mode : Variable
    Overall bit rate : 14.6 Mbps

    Video
    ID : 2
    Format : AVC
    Format/Info : Advanced Video Codec
    Format profile : High@L4.0
    Format settings, CABAC : Yes
    Format settings, ReFrames : 2 frames
    Codec ID : avc1
    Codec ID/Info : Advanced Video Coding
    Duration : 3mn 41s
    Bit rate mode : Variable
    Bit rate : 14.2 Mbps
    Maximum bit rate : 22.0 Mbps
    Width : 1 920 pixels
    Height : 1 080 pixels
    Display aspect ratio : 16:9
    Frame rate mode : Constant
    Frame rate : 29.970 fps
    Color space : YUV
    Chroma subsampling : 4:2:0
    Bit depth : 8 bits
    Scan type : Progressive
    Bits/(Pixel*Frame) : 0.229
    Stream size : 376 MiB (98%)

    Audio
    ID : 1
    Format : AAC
    Format/Info : Advanced Audio Codec
    Format profile : LC
    Codec ID : 40
    Duration : 3mn 41s
    Bit rate mode : Constant
    Bit rate : 320 Kbps
    Channel(s) : 2 channels
    Channel positions : Front: L R
    Sampling rate : 48.0 KHz
    Compression mode : Lossy
    Delay relative to video : 33ms
    Stream size : 8.45 MiB (2%)
    ***Hidden content cannot be quoted.***
    Password: textcarl
    [/QUOTE]
     
  9. juanxo14

    juanxo14 Member

    Joined:
    Apr 17, 2018
    Messages:
    412
    Likes Received:
    7
    gracias
     
  10. jb13

    jb13 Member

    Joined:
    Oct 24, 2017
    Messages:
    324
    Likes Received:
    10
    gracias
     
  11. Anjolicious

    Anjolicious Well-Known Member

    Joined:
    Jun 17, 2015
    Messages:
    633
    Likes Received:
    253
  12. mariacnt

    mariacnt New Member

    Joined:
    Jun 25, 2018
    Messages:
    8
    Likes Received:
    0
  13. thigurgelbritney

    thigurgelbritney Member

    Joined:
    Aug 2, 2018
    Messages:
    184
    Likes Received:
    2
  14. leomtc

    leomtc Member

    Joined:
    Sep 30, 2016
    Messages:
    179
    Likes Received:
    23
    thanks
     
  15. lovegungun

    lovegungun Member

    Joined:
    Dec 8, 2017
    Messages:
    208
    Likes Received:
    9
  16. pedrohgb

    pedrohgb New Member

    Joined:
    Sep 7, 2018
    Messages:
    15
    Likes Received:
    0
    thanks
     
  17. Chris Sooz

    Chris Sooz Member

    Joined:
    Jan 13, 2016
    Messages:
    279
    Likes Received:
    3
  18. revilo18

    revilo18 Well-Known Member

    Joined:
    May 26, 2016
    Messages:
    2,245
    Likes Received:
    111
    tha
    nkkkkkkk