Ramones - I Wanna Be Sedated (MTVPulse-1080i-DD2.0)-Olgold

Discussion in 'MTV PULSE HD' started by Olgold, Aug 27, 2015.

  1. Olgold

    Olgold Well-Known Member Capper

    Joined:
    Aug 19, 2015
    Messages:
    436
    Likes Received:
    1,677
    [​IMG]
    General
    Format : MPEG-TS
    File size : 140 MiB
    Duration : 2mn 26s
    Overall bit rate mode : Variable
    Overall bit rate : 8 005 Kbps

    Video
    Format : AVC
    Format/Info : Advanced Video Codec
    Format profile : [email protected]
    Format settings, CABAC : Yes
    Format settings, ReFrames : 4 frames
    Duration : 2mn 26s
    Bit rate : 7 351 Kbps
    Width : 1 920 pixels
    Height : 1 080 pixels
    Display aspect ratio : 16:9
    Frame rate : 25.000 fps
    Standard : Component
    Color space : YUV
    Chroma subsampling : 4:2:0
    Bit depth : 8 bits
    Scan type : MBAFF
    Scan order : Top Field First
    Bits/(Pixel*Frame) : 0.142
    Stream size : 128 MiB (92%)
    Color range : Limited

    Audio
    Format : AC-3
    Format/Info : Audio Coding 3
    Mode extension : CM (complete main)
    Format settings, Endianness : Big
    Duration : 2mn 26s
    Bit rate mode : Constant
    Bit rate : 256 Kbps
    Channel(s) : 2 channels
    Channel positions : Front: L R
    Sampling rate : 48.0 KHz
    Compression mode : Lossy
    Delay relative to video : 152ms
    Stream size : 4.47 MiB (3%)
    Language : French

    Hidden Content:
    You must reply before you can see the hidden data contained here.
     
  2. rhea

    rhea Well-Known Member

    Joined:
    Jan 6, 2014
    Messages:
    6,657
    Likes Received:
    690
    thank you so much
     
    snake1 likes this.
  3. Flaxdevil

    Flaxdevil Member

    Joined:
    May 25, 2014
    Messages:
    285
    Likes Received:
    10
    I wanna be sedated, yeah!
     
  4. slash

    slash Member

    Joined:
    Mar 17, 2016
    Messages:
    63
    Likes Received:
    1
    thanks
     
  5. tapions

    tapions Active Member

    Joined:
    Aug 30, 2016
    Messages:
    899
    Likes Received:
    70
    gracias
     
  6. jms_salta

    jms_salta Member

    Joined:
    Nov 9, 2014
    Messages:
    33
    Likes Received:
    0
    thank you so much
     
  7. revilo18

    revilo18 Well-Known Member

    Joined:
    May 26, 2016
    Messages:
    1,851
    Likes Received:
    83
    THANKKK
     
  8. Daniel Leite

    Daniel Leite Member

    Joined:
    Feb 18, 2017
    Messages:
    32
    Likes Received:
    5
    I was searching 4 that ><
     
  9. noriscout

    noriscout Active Member

    Joined:
    Apr 26, 2017
    Messages:
    290
    Likes Received:
    63
    Thanks, friendugan
     
  10. valtersc

    valtersc Active Member

    Joined:
    Nov 19, 2014
    Messages:
    256
    Likes Received:
    168
  11. alvarojam

    alvarojam Member

    Joined:
    Mar 21, 2016
    Messages:
    115
    Likes Received:
    9
    thank you!!!
     
  12. cristianleyv

    cristianleyv Member

    Joined:
    Oct 22, 2015
    Messages:
    132
    Likes Received:
    4
  13. snake1

    snake1 Member

    Joined:
    Sep 30, 2017
    Messages:
    131
    Likes Received:
    0
    Can you release the download link?