RaeLynn - God Made Girls (CMTHD) 1080i H.264 DD2.0-HDMania

Discussion in 'CMT HD' started by RGF72K, Jan 25, 2015.

  1. RGF72K

    RGF72K ????? Staff Member Super Moderator

    Joined:
    Oct 1, 2013
    Messages:
    1,020
    Likes Received:
    14,913
    [​IMG] [​IMG] [​IMG] [​IMG] [​IMG] [​IMG] [​IMG] [​IMG] [​IMG]

    General
    ID : 1 (0x1)
    Complete name : RaeLynn - God Made Girls (CMTHD) 1080i H.264 DD2.0-HDMania.ts
    Format : MPEG-TS
    File size : 391 MiB
    Duration : 3mn 50s
    Overall bit rate mode : Variable
    Overall bit rate : 14.2 Mbps

    Video
    ID : 4113 (0x1011)
    Menu ID : 1 (0x1)
    Format : AVC
    Format/Info : Advanced Video Codec
    Format profile : [email protected]
    Format settings, CABAC : Yes
    Format settings, ReFrames : 4 frames
    Codec ID : 27
    Duration : 3mn 50s
    Bit rate mode : Variable
    Bit rate : 13.1 Mbps
    Maximum bit rate : 20.0 Mbps
    Width : 1 920 pixels
    Height : 1 080 pixels
    Display aspect ratio : 16:9
    Frame rate : 29.970 fps
    Color space : YUV
    Chroma subsampling : 4:2:0
    Bit depth : 8 bits
    Scan type : Interlaced
    Scan order : Top Field First
    Bits/(Pixel*Frame) : 0.211
    Stream size : 361 MiB (92%)
    Color primaries : BT.709
    Transfer characteristics : BT.709
    Matrix coefficients : BT.709
    Color range : Limited

    Audio
    ID : 4352 (0x1100)
    Menu ID : 1 (0x1)
    Format : AC-3
    Format/Info : Audio Coding 3
    Mode extension : CM (complete main)
    Format settings, Endianness : Big
    Codec ID : 129
    Duration : 3mn 50s
    Bit rate mode : Constant
    Bit rate : 384 Kbps
    Channel(s) : 2 channels
    Channel positions : Front: L R
    Sampling rate : 48.0 KHz
    Bit depth : 16 bits
    Compression mode : Lossy
    Stream size : 10.5 MiB (3%)
    Language : English


    Download:
    Hidden Content:
    You must either reply or click 'Like' to see the hidden information contained here.

    Capped by Me :victory:
     
    JJ6851985, revilo18, johymbim and 4 others like this.
  2. 777josem

    777josem Well-Known Member V . I . P. Uploader

    Joined:
    Sep 1, 2014
    Messages:
    3,130
    Likes Received:
    1,731
    Thank you! :)
     
  3. rhea

    rhea Well-Known Member

    Joined:
    Jan 6, 2014
    Messages:
    5,856
    Likes Received:
    423
    thanks a lot :)
     
  4. joelh20101

    joelh20101 Well-Known Member

    Joined:
    Nov 4, 2013
    Messages:
    1,459
    Likes Received:
    143
    thanks for this
     
  5. multimediafm

    multimediafm Well-Known Member Donor

    Joined:
    Mar 27, 2014
    Messages:
    8,865
    Likes Received:
    378
    Thanks :love:
    RaeLynn - God Made Girls (CMTHD) 1080i H.264 DD2.0-HDMania
     
  6. Zatimi

    Zatimi Active Member

    Joined:
    Aug 27, 2014
    Messages:
    672
    Likes Received:
    98
    thanks a lot
     
  7. bbb777

    bbb777 Member

    Joined:
    Mar 2, 2016
    Messages:
    81
    Likes Received:
    1
    thanks
     
  8. Pavulon

    Pavulon Well-Known Member

    Joined:
    Mar 22, 2016
    Messages:
    1,956
    Likes Received:
    116
    thanks