Rae Sremmurd ft. Nicki Minaj & Young Thug - Throw Sum Mo (REVOLTHD) 1080i H.264 DD2.0-HDMania

Discussion in 'REVOLT' started by Ransel, Jul 13, 2015.

  1. Ransel

    Ransel Founder Staff Member AdMiN Uploader

    Joined:
    Oct 1, 2013
    Messages:
    1,386
    Likes Received:
    21,927
    [​IMG]

    General
    ID : 1 (0x1)
    Complete name : Rae Sremmurd ft. Nicki Minaj & Young Thug - Throw Sum Mo (REVOLTHD) 1080i H.264 DD2.0-HDMania.ts
    Format : MPEG-TS
    File size : 448 MiB
    Duration : 4mn 24s
    Overall bit rate mode : Variable
    Overall bit rate : 14.2 Mbps

    Video
    ID : 4113 (0x1011)
    Menu ID : 1 (0x1)
    Format : AVC
    Format/Info : Advanced Video Codec
    Format profile : Main@L4.0
    Format settings, CABAC : Yes
    Format settings, ReFrames : 4 frames
    Format settings, GOP : M=4, N=32
    Codec ID : 27
    Duration : 4mn 24s
    Bit rate mode : Variable
    Bit rate : 13.1 Mbps
    Maximum bit rate : 20.0 Mbps
    Width : 1 920 pixels
    Height : 1 080 pixels
    Display aspect ratio : 16:9
    Frame rate : 29.970 fps
    Color space : YUV
    Chroma subsampling : 4:2:0
    Bit depth : 8 bits
    Scan type : Interlaced
    Scan order : Top Field First
    Bits/(Pixel*Frame) : 0.211
    Stream size : 414 MiB (92%)
    Color primaries : BT.709
    Transfer characteristics : BT.709
    Matrix coefficients : BT.709
    Color range : Limited

    Audio
    ID : 4352 (0x1100)
    Menu ID : 1 (0x1)
    Format : AC-3
    Format/Info : Audio Coding 3
    Mode extension : CM (complete main)
    Format settings, Endianness : Big
    Codec ID : 129
    Duration : 4mn 24s
    Bit rate mode : Constant
    Bit rate : 384 Kbps
    Channel(s) : 2 channels
    Channel positions : Front: L R
    Sampling rate : 48.0 KHz
    Bit depth : 16 bits
    Compression mode : Lossy
    Stream size : 12.1 MiB (3%)
    Language : English

    Download:
    Hidden Content:
    You must either reply or click 'Like' to see the hidden information contained here.


    Capped By Me :victory:
     
  2. dgnio

    dgnio Well-Known Member Capper Uploader

    Joined:
    Jul 7, 2014
    Messages:
    2,162
    Likes Received:
    760
    thnks..plz Ransel can u upload thebet awards 2015 ful cut performences in hdtv 1080i feed plz?
     
  3. rhea

    rhea Well-Known Member

    Joined:
    Jan 6, 2014
    Messages:
    10,938
    Likes Received:
    2,093
    thank you so much
     
  4. MCTR

    MCTR Active Member

    Joined:
    Feb 23, 2014
    Messages:
    338
    Likes Received:
    79
    thank you
     
  5. Pavulon

    Pavulon Well-Known Member Donor

    Joined:
    Mar 22, 2016
    Messages:
    5,032
    Likes Received:
    1,553
    thanks
     
  6. tp327

    tp327 Member

    Joined:
    Apr 4, 2018
    Messages:
    488
    Likes Received:
    12
    Thanks
     
  7. rkgmade

    rkgmade Well-Known Member

    Joined:
    Sep 29, 2016
    Messages:
    3,328
    Likes Received:
    245
    thanks
     
  8. Minajfav

    Minajfav Active Member

    Joined:
    Jul 2, 2018
    Messages:
    561
    Likes Received:
    25
    Thanks
     
  9. minajslay

    minajslay Member

    Joined:
    Jan 8, 2020
    Messages:
    238
    Likes Received:
    5
    thanks
     
  10. keianihorton25

    keianihorton25 New Member

    Joined:
    Aug 29, 2019
    Messages:
    6
    Likes Received:
    0
    thanks