R.E.M. - Shiny Happy People (MTVPulse-1080i-DD2.0)-Olgold

Discussion in 'MTV PULSE HD' started by Olgold, Aug 27, 2015.

  1. Olgold

    Olgold Well-Known Member Capper

    Joined:
    Aug 19, 2015
    Messages:
    436
    Likes Received:
    1,771
    [​IMG]
    General
    Format : MPEG-TS
    File size : 321 MiB
    Duration : 3mn 49s
    Overall bit rate mode : Variable
    Overall bit rate : 11.7 Mbps

    Video
    Format : AVC
    Format/Info : Advanced Video Codec
    Format profile : High@L4
    Format settings, CABAC : Yes
    Format settings, ReFrames : 4 frames
    Duration : 3mn 49s
    Bit rate : 10.9 Mbps
    Width : 1 920 pixels
    Height : 1 080 pixels
    Display aspect ratio : 16:9
    Frame rate : 25.000 fps
    Standard : Component
    Color space : YUV
    Chroma subsampling : 4:2:0
    Bit depth : 8 bits
    Scan type : MBAFF
    Scan order : Top Field First
    Bits/(Pixel*Frame) : 0.210
    Stream size : 299 MiB (93%)
    Color range : Limited

    Audio
    Format : AC-3
    Format/Info : Audio Coding 3
    Mode extension : CM (complete main)
    Format settings, Endianness : Big
    Duration : 3mn 49s
    Bit rate mode : Constant
    Bit rate : 256 Kbps
    Channel(s) : 2 channels
    Channel positions : Front: L R
    Sampling rate : 48.0 KHz
    Compression mode : Lossy
    Delay relative to video : 112ms
    Stream size : 7.01 MiB (2%)
    Language : French

    Hidden Content:
    You must reply before you can see the hidden data contained here.
     
    777josem and CELOBRAZiL like this.
  2. rhea

    rhea Well-Known Member

    Joined:
    Jan 6, 2014
    Messages:
    7,550
    Likes Received:
    903
    thank you so much
     
  3. mizdot

    mizdot Well-Known Member

    Joined:
    Nov 13, 2014
    Messages:
    2,355
    Likes Received:
    91
    tnx man
     
  4. jonathan joel 97

    jonathan joel 97 Sasuke07kun

    Joined:
    Oct 1, 2015
    Messages:
    304
    Likes Received:
    215
    esta es original!
     
  5. wwepan

    wwepan Member

    Joined:
    Oct 21, 2015
    Messages:
    39
    Likes Received:
    0
    Thank You
     
  6. janito33

    janito33 Member

    Joined:
    Dec 10, 2014
    Messages:
    207
    Likes Received:
    3
    gracias por el video
     
  7. Flaxdevil

    Flaxdevil Member

    Joined:
    May 25, 2014
    Messages:
    285
    Likes Received:
    12
    gracias!
     
  8. Godwinson

    Godwinson Active Member

    Joined:
    Oct 23, 2014
    Messages:
    396
    Likes Received:
    62
    Thanks
    Thanks
     
  9. Escalade1080p

    Escalade1080p Member

    Joined:
    Nov 20, 2013
    Messages:
    515
    Likes Received:
    16
    Thanks a lot!
     
  10. vaci

    vaci Member

    Joined:
    Jul 16, 2016
    Messages:
    95
    Likes Received:
    5
    Thank You
     
  11. tapions

    tapions Active Member

    Joined:
    Aug 30, 2016
    Messages:
    956
    Likes Received:
    84
    gracias
     
  12. jms_salta

    jms_salta Member

    Joined:
    Nov 9, 2014
    Messages:
    153
    Likes Received:
    2
    Thank You
     
  13. revilo18

    revilo18 Well-Known Member

    Joined:
    May 26, 2016
    Messages:
    2,021
    Likes Received:
    97
    THANKKK
     
  14. CristianMatias

    CristianMatias HIGH DEFINITION

    Joined:
    Sep 17, 2016
    Messages:
    978
    Likes Received:
    35
    Muchas Gracias
     
  15. badine82

    badine82 Member

    Joined:
    Oct 24, 2015
    Messages:
    272
    Likes Received:
    9