R.E.M. - Losing My Religion (MTVPulse-1080i-DD2.0)-Olgold

Discussion in 'MTV PULSE HD' started by Olgold, Aug 27, 2015.

  1. Olgold

    Olgold Well-Known Member Capper

    Joined:
    Aug 19, 2015
    Messages:
    435
    Likes Received:
    1,484
    [​IMG]
    General
    Format : MPEG-TS
    File size : 183 MiB
    Duration : 4mn 42s
    Overall bit rate mode : Variable
    Overall bit rate : 5 432 Kbps

    Video
    Format : AVC
    Format/Info : Advanced Video Codec
    Format profile : [email protected]
    Format settings, CABAC : Yes
    Format settings, ReFrames : 4 frames
    Duration : 4mn 42s
    Bit rate : 4 970 Kbps
    Width : 1 920 pixels
    Height : 1 080 pixels
    Display aspect ratio : 16:9
    Frame rate : 25.000 fps
    Standard : Component
    Color space : YUV
    Chroma subsampling : 4:2:0
    Bit depth : 8 bits
    Scan type : MBAFF
    Scan order : Top Field First
    Bits/(Pixel*Frame) : 0.096
    Stream size : 167 MiB (91%)
    Encryption : Seca Mediaguard 1/2
    Color range : Limited

    Audio
    Format : AC-3
    Format/Info : Audio Coding 3
    Mode extension : CM (complete main)
    Format settings, Endianness : Big
    Duration : 4mn 42s
    Bit rate mode : Constant
    Bit rate : 192 Kbps
    Channel(s) : 2 channels
    Channel positions : Front: L R
    Sampling rate : 48.0 KHz
    Compression mode : Lossy
    Delay relative to video : -4ms
    Stream size : 6.47 MiB (4%)
    Language : French

    Hidden Content:
    You must reply before you can see the hidden data contained here.
     
    dannielfeijo, leryck, rhea and 2 others like this.
  2. rhea

    rhea Well-Known Member

    Joined:
    Jan 6, 2014
    Messages:
    5,549
    Likes Received:
    312
    thank you so much
     
  3. mizdot

    mizdot Active Member

    Joined:
    Nov 13, 2014
    Messages:
    1,226
    Likes Received:
    24
    tnx man
     
  4. furkan

    furkan Member

    Joined:
    Oct 9, 2015
    Messages:
    214
    Likes Received:
    3
    thnks oyuuuu
     
  5. Flaxdevil

    Flaxdevil Member

    Joined:
    May 25, 2014
    Messages:
    210
    Likes Received:
    6
    i love REM!
     
  6. tsm897

    tsm897 Member

    Joined:
    Apr 16, 2014
    Messages:
    133
    Likes Received:
    3
    thank you
     
  7. Snorom6

    Snorom6 Well-Known Member Uploader

    Joined:
    Dec 17, 2015
    Messages:
    4,245
    Likes Received:
    3,990
  8. yonita

    yonita Active Member

    Joined:
    Mar 7, 2016
    Messages:
    393
    Likes Received:
    38
    LOVE IT
     
  9. TrendMusic

    TrendMusic Well-Known Member

    Joined:
    Oct 7, 2013
    Messages:
    1,038
    Likes Received:
    61
  10. ors72

    ors72 New Member

    Joined:
    Feb 26, 2016
    Messages:
    18
    Likes Received:
    0
    muchas gracias
     
  11. cero

    cero Member

    Joined:
    Nov 1, 2013
    Messages:
    102
    Likes Received:
    0
    thanks u
     
  12. tapions

    tapions Active Member

    Joined:
    Aug 30, 2016
    Messages:
    777
    Likes Received:
    58
    gracias
     
  13. angelm

    angelm Member

    Joined:
    Aug 5, 2016
    Messages:
    169
    Likes Received:
    6
    great
     
  14. CristianMatias

    CristianMatias Member

    Joined:
    Sep 17, 2016
    Messages:
    546
    Likes Received:
    17
  15. braciata

    braciata Well-Known Member

    Joined:
    Oct 16, 2014
    Messages:
    377
    Likes Received:
    435
    thxxxxxxxxx
     
  16. danicoteca

    danicoteca Member

    Joined:
    Sep 10, 2016
    Messages:
    160
    Likes Received:
    17
  17. leryck

    leryck Member

    Joined:
    Sep 21, 2016
    Messages:
    44
    Likes Received:
    1
    graciasss
     
  18. revilo18

    revilo18 Well-Known Member

    Joined:
    May 26, 2016
    Messages:
    1,482
    Likes Received:
    61
    THABKKK
     
  19. wangyuqiang

    wangyuqiang Member

    Joined:
    Jul 21, 2016
    Messages:
    129
    Likes Received:
    3
    thank you
     
  20. ANDRESANITYshare

    ANDRESANITYshare New Member

    Joined:
    Jan 15, 2017
    Messages:
    23
    Likes Received:
    0