Queen - I Want To Break Free (MTVPulse-1080i-DD2.0)-Olgold

Discussion in 'MTV PULSE HD' started by Olgold, Aug 27, 2015.

  1. Olgold

    Olgold Well-Known Member Capper

    Joined:
    Aug 19, 2015
    Messages:
    386
    Likes Received:
    1,303
    [​IMG]
    General
    Format : MPEG-TS
    File size : 227 MiB
    Duration : 4mn 14s
    Overall bit rate mode : Variable
    Overall bit rate : 7 472 Kbps

    Video
    Format : AVC
    Format/Info : Advanced Video Codec
    Format profile : [email protected]
    Format settings, CABAC : Yes
    Format settings, ReFrames : 4 frames
    Duration : 4mn 15s
    Bit rate : 6 844 Kbps
    Width : 1 920 pixels
    Height : 1 080 pixels
    Display aspect ratio : 16:9
    Frame rate : 25.000 fps
    Standard : Component
    Color space : YUV
    Chroma subsampling : 4:2:0
    Bit depth : 8 bits
    Scan type : MBAFF
    Scan order : Top Field First
    Bits/(Pixel*Frame) : 0.132
    Stream size : 208 MiB (92%)
    Color range : Limited

    Audio
    Format : AC-3
    Format/Info : Audio Coding 3
    Mode extension : CM (complete main)
    Format settings, Endianness : Big
    Duration : 4mn 14s
    Bit rate mode : Constant
    Bit rate : 256 Kbps
    Channel(s) : 2 channels
    Channel positions : Front: L R
    Sampling rate : 48.0 KHz
    Compression mode : Lossy
    Delay relative to video : 72ms
    Stream size : 7.78 MiB (3%)
    Language : French

    Hidden Content:
    You must reply before you can see the hidden data contained here.
     
    Yuri, 777josem and CELOBRAZiL like this.
  2. 777josem

    777josem Well-Known Member Uploader

    Joined:
    Sep 1, 2014
    Messages:
    2,341
    Likes Received:
    1,253
    Thank you so much!
     
  3. rhea

    rhea Well-Known Member

    Joined:
    Jan 6, 2014
    Messages:
    5,193
    Likes Received:
    250
    thank you so much
     
  4. mizdot

    mizdot Active Member

    Joined:
    Nov 13, 2014
    Messages:
    1,143
    Likes Received:
    20
    tnx man
     
  5. wwepan

    wwepan Member

    Joined:
    Oct 21, 2015
    Messages:
    34
    Likes Received:
    0
    Thank You
     
  6. nolynexor88

    nolynexor88 Member

    Joined:
    Sep 29, 2015
    Messages:
    762
    Likes Received:
    23
     
  7. tf135

    tf135 Well-Known Member

    Joined:
    Nov 14, 2014
    Messages:
    1,537
    Likes Received:
    87
    thank you
     
  8. arnold

    arnold Member

    Joined:
    Oct 29, 2014
    Messages:
    232
    Likes Received:
    3
    thank you
     
  9. Flaxdevil

    Flaxdevil Member

    Joined:
    May 25, 2014
    Messages:
    205
    Likes Received:
    6
    So good!
     
  10. Godwinson

    Godwinson Active Member

    Joined:
    Oct 23, 2014
    Messages:
    373
    Likes Received:
    46
    Thanks
     
  11. slash

    slash Member

    Joined:
    Mar 17, 2016
    Messages:
    63
    Likes Received:
    1
    thanks
     
  12. royevilone

    royevilone Well-Known Member

    Joined:
    Feb 16, 2016
    Messages:
    699
    Likes Received:
    278
    Thank you !
     
  13. killers23

    killers23 Active Member

    Joined:
    Feb 27, 2015
    Messages:
    401
    Likes Received:
    62
    thanks for sharing
     
  14. panchozua13

    panchozua13 Member

    Joined:
    Jun 25, 2016
    Messages:
    178
    Likes Received:
    4
  15. tapions

    tapions Active Member

    Joined:
    Aug 30, 2016
    Messages:
    749
    Likes Received:
    47
    gracias
     
    Yuri likes this.
  16. rimisark

    rimisark Member

    Joined:
    Jul 22, 2016
    Messages:
    133
    Likes Received:
    2
    hwhahgwahwa
     
  17. revilo18

    revilo18 Well-Known Member

    Joined:
    May 26, 2016
    Messages:
    1,279
    Likes Received:
    51
    THSNKKK