Queen - I Want To Break Free (MTVPulse-1080i-DD2.0)-Olgold

Discussion in 'MTV PULSE HD' started by Olgold, Aug 27, 2015.

  1. Olgold

    Olgold Well-Known Member Capper

    Joined:
    Aug 19, 2015
    Messages:
    436
    Likes Received:
    1,824
    [​IMG]
    General
    Format : MPEG-TS
    File size : 227 MiB
    Duration : 4mn 14s
    Overall bit rate mode : Variable
    Overall bit rate : 7 472 Kbps

    Video
    Format : AVC
    Format/Info : Advanced Video Codec
    Format profile : High@L4
    Format settings, CABAC : Yes
    Format settings, ReFrames : 4 frames
    Duration : 4mn 15s
    Bit rate : 6 844 Kbps
    Width : 1 920 pixels
    Height : 1 080 pixels
    Display aspect ratio : 16:9
    Frame rate : 25.000 fps
    Standard : Component
    Color space : YUV
    Chroma subsampling : 4:2:0
    Bit depth : 8 bits
    Scan type : MBAFF
    Scan order : Top Field First
    Bits/(Pixel*Frame) : 0.132
    Stream size : 208 MiB (92%)
    Color range : Limited

    Audio
    Format : AC-3
    Format/Info : Audio Coding 3
    Mode extension : CM (complete main)
    Format settings, Endianness : Big
    Duration : 4mn 14s
    Bit rate mode : Constant
    Bit rate : 256 Kbps
    Channel(s) : 2 channels
    Channel positions : Front: L R
    Sampling rate : 48.0 KHz
    Compression mode : Lossy
    Delay relative to video : 72ms
    Stream size : 7.78 MiB (3%)
    Language : French

    Hidden Content:
    You must reply before you can see the hidden data contained here.
     
    Yuri, 777josem and CELOBRAZiL like this.
  2. 777josem

    777josem ProRes 1080p LPCM

    Joined:
    Sep 1, 2014
    Messages:
    3,792
    Likes Received:
    3,648
    Thank you so much!
     
  3. rhea

    rhea Well-Known Member

    Joined:
    Jan 6, 2014
    Messages:
    8,301
    Likes Received:
    1,190
    thank you so much
     
  4. mizdot

    mizdot Well-Known Member

    Joined:
    Nov 13, 2014
    Messages:
    2,956
    Likes Received:
    124
    tnx man
     
  5. wwepan

    wwepan Member

    Joined:
    Oct 21, 2015
    Messages:
    39
    Likes Received:
    0
    Thank You
     
  6. nolynexor88

    nolynexor88 Well-Known Member

    Joined:
    Sep 29, 2015
    Messages:
    1,509
    Likes Received:
    105
     
  7. tf135

    tf135 Well-Known Member

    Joined:
    Nov 14, 2014
    Messages:
    3,498
    Likes Received:
    200
    thank you
     
  8. arnold

    arnold Member

    Joined:
    Oct 29, 2014
    Messages:
    241
    Likes Received:
    5
    thank you
     
  9. Flaxdevil

    Flaxdevil Member

    Joined:
    May 25, 2014
    Messages:
    285
    Likes Received:
    12
    So good!
     
  10. Godwinson

    Godwinson Active Member

    Joined:
    Oct 23, 2014
    Messages:
    414
    Likes Received:
    66
    Thanks
     
  11. slash

    slash Member

    Joined:
    Mar 17, 2016
    Messages:
    63
    Likes Received:
    2
    thanks
     
  12. royevilone

    royevilone Well-Known Member Donor

    Joined:
    Feb 16, 2016
    Messages:
    1,234
    Likes Received:
    1,296
    Thank you !
     
  13. killers23

    killers23 Active Member

    Joined:
    Feb 27, 2015
    Messages:
    932
    Likes Received:
    98
    thanks for sharing
     
  14. tapions

    tapions Well-Known Member

    Joined:
    Aug 30, 2016
    Messages:
    1,062
    Likes Received:
    95
    gracias
     
    Yuri likes this.
  15. rimisark

    rimisark Member

    Joined:
    Jul 22, 2016
    Messages:
    180
    Likes Received:
    2
    hwhahgwahwa
     
  16. revilo18

    revilo18 Well-Known Member

    Joined:
    May 26, 2016
    Messages:
    2,271
    Likes Received:
    115
    THSNKKK
     
  17. CristianMatias

    CristianMatias Next Generations

    Joined:
    Sep 17, 2016
    Messages:
    1,333
    Likes Received:
    109
    I Want To Break Free
     
  18. MrCarlos5295

    MrCarlos5295 Member

    Joined:
    Mar 13, 2017
    Messages:
    263
    Likes Received:
    15
  19. lliknho

    lliknho New Member

    Joined:
    May 25, 2018
    Messages:
    23
    Likes Received:
    2
    thanks