HDTV Queen + Adam Lambert - Rock in Rio Brazil [18-Sep-2015] GLOBOHD 1080i HDTV DD5.1 H.264 CELOBRAZiL-HD

Discussion in 'HD Live Performances' started by CELOBRAZiL, Sep 18, 2018.

  1. CELOBRAZiL

    CELOBRAZiL Well-Known Member Capper V . I . P. Donor

    Joined:
    Oct 2, 2013
    Messages:
    8,759
    Likes Received:
    32,285
    Queen + Adam Lambert - Rock in Rio Brazil [18-Sep-2015] GLOBOHD 1080i HDTV DD5.1 H.264 CELOBRAZiL-HDMania

    [​IMG]
    [​IMG]
    [​IMG]
    [​IMG]
    [​IMG]
    [​IMG]
    [​IMG]



    Format : MPEG-TS
    File size : 628 MiB
    Duration : 5 min 29 s
    Overall bit rate mode : Variable
    Overall bit rate : 16.0 Mb/s

    Video
    ID : 273 (0x111)
    Menu ID : 504 (0x1F8)
    Format : AVC
    Format/Info : Advanced Video Codec
    Format profile : High@L4
    Format settings : CABAC / 2 Ref Frames
    Format settings, CABAC : Yes
    Format settings, RefFrames : 2 frames
    Format settings, GOP : M=3, N=15
    Codec ID : 27
    Duration : 5 min 29 s
    Bit rate mode : Variable
    Maximum bit rate : 24.0 Mb/s
    Width : 1 920 pixels
    Height : 1 080 pixels
    Display aspect ratio : 16:9
    Frame rate : 29.970 (30000/1001) FPS
    Color space : YUV
    Chroma subsampling : 4:2:0
    Bit depth : 8 bits
    Scan type : Interlaced
    Scan type, store method : Separated fields
    Scan order : Top Field First
    Color range : Limited
    Color primaries : BT.709
    Transfer characteristics : BT.709
    Matrix coefficients : BT.709

    Audio #1
    ID : 274 (0x112)
    Menu ID : 504 (0x1F8)
    Format : AAC LC SBR
    Format/Info : Advanced Audio Codec Low Complexity with Spectral Band Replication
    Commercial name : HE-AAC
    Format settings : NBC
    Muxing mode : LATM
    Codec ID : 17-5
    Duration : 5 min 29 s
    Bit rate mode : Variable
    Channel(s) : 2 channels
    Channel layout : L R
    Sampling rate : 48.0 kHz
    Frame rate : 23.438 FPS (2048 SPF)
    Compression mode : Lossy
    Language : Portuguese

    Audio #2
    ID : 275 (0x113)
    Menu ID : 504 (0x1F8)
    Format : AC-3
    Format/Info : Audio Coding 3
    Commercial name : Dolby Digital
    Codec ID : 6
    Duration : 5 min 29 s
    Bit rate mode : Constant
    Bit rate : 640 kb/s
    Channel(s) : 6 channels
    Channel layout : L R C LFE Ls Rs
    Sampling rate : 48.0 kHz
    Frame rate : 31.250 FPS (1536 SPF)
    Bit depth : 16 bits
    Compression mode : Lossy
    Stream size : 25.1 MiB (4%)
    Language : English
    Service kind : Complete Main

    Audio #3
    ID : 276 (0x114)
    Menu ID : 504 (0x1F8)
    Format : AAC LC SBR
    Format/Info : Advanced Audio Codec Low Complexity with Spectral Band Replication
    Commercial name : HE-AAC
    Format settings : NBC
    Muxing mode : LATM
    Codec ID : 17-5
    Duration : 5 min 29 s
    Bit rate mode : Variable
    Channel(s) : 2 channels
    Channel layout : L R
    Sampling rate : 48.0 kHz
    Frame rate : 23.438 FPS (2048 SPF)
    Compression mode : Lossy
    Language : des

    Audio #4
    ID : 277 (0x115)
    Menu ID : 504 (0x1F8)
    Format : AC-3
    Format/Info : Audio Coding 3
    Commercial name : Dolby Digital
    Codec ID : 6
    Duration : 5 min 29 s
    Bit rate mode : Constant
    Bit rate : 640 kb/s
    Channel(s) : 6 channels
    Channel layout : L R C LFE Ls Rs
    Sampling rate : 48.0 kHz
    Frame rate : 31.250 FPS (1536 SPF)
    Bit depth : 16 bits
    Compression mode : Lossy
    Stream size : 25.1 MiB (4%)
    Language : 5.1
    Service kind : Complete Main


    Format : MPEG-TS
    File size : 498 MiB
    Duration : 4 min 22 s
    Overall bit rate mode : Variable
    Overall bit rate : 15.9 Mb/s

    Video
    ID : 273 (0x111)
    Menu ID : 504 (0x1F8)
    Format : AVC
    Format/Info : Advanced Video Codec
    Format profile : High@L4
    Format settings : CABAC / 2 Ref Frames
    Format settings, CABAC : Yes
    Format settings, RefFrames : 2 frames
    Format settings, GOP : M=3, N=15
    Codec ID : 27
    Duration : 4 min 22 s
    Bit rate mode : Variable
    Maximum bit rate : 24.0 Mb/s
    Width : 1 920 pixels
    Height : 1 080 pixels
    Display aspect ratio : 16:9
    Frame rate : 29.970 (30000/1001) FPS
    Color space : YUV
    Chroma subsampling : 4:2:0
    Bit depth : 8 bits
    Scan type : Interlaced
    Scan type, store method : Separated fields
    Scan order : Top Field First
    Color range : Limited
    Color primaries : BT.709
    Transfer characteristics : BT.709
    Matrix coefficients : BT.709

    Audio #1
    ID : 274 (0x112)
    Menu ID : 504 (0x1F8)
    Format : AAC LC SBR
    Format/Info : Advanced Audio Codec Low Complexity with Spectral Band Replication
    Commercial name : HE-AAC
    Format settings : NBC
    Muxing mode : LATM
    Codec ID : 17-5
    Duration : 4 min 22 s
    Bit rate mode : Variable
    Channel(s) : 2 channels
    Channel layout : L R
    Sampling rate : 48.0 kHz
    Frame rate : 23.438 FPS (2048 SPF)
    Compression mode : Lossy
    Delay relative to video : -33 ms
    Language : Portuguese

    Audio #2
    ID : 275 (0x113)
    Menu ID : 504 (0x1F8)
    Format : AC-3
    Format/Info : Audio Coding 3
    Commercial name : Dolby Digital
    Codec ID : 6
    Duration : 4 min 22 s
    Bit rate mode : Constant
    Bit rate : 640 kb/s
    Channel(s) : 6 channels
    Channel layout : L R C LFE Ls Rs
    Sampling rate : 48.0 kHz
    Frame rate : 31.250 FPS (1536 SPF)
    Bit depth : 16 bits
    Compression mode : Lossy
    Delay relative to video : -33 ms
    Stream size : 20.0 MiB (4%)
    Language : English
    Service kind : Complete Main

    Audio #3
    ID : 276 (0x114)
    Menu ID : 504 (0x1F8)
    Format : AAC LC SBR
    Format/Info : Advanced Audio Codec Low Complexity with Spectral Band Replication
    Commercial name : HE-AAC
    Format settings : NBC
    Muxing mode : LATM
    Codec ID : 17-5
    Duration : 4 min 22 s
    Bit rate mode : Variable
    Channel(s) : 2 channels
    Channel layout : L R
    Sampling rate : 48.0 kHz
    Frame rate : 23.438 FPS (2048 SPF)
    Compression mode : Lossy
    Delay relative to video : -33 ms
    Language : des

    Audio #4
    ID : 277 (0x115)
    Menu ID : 504 (0x1F8)
    Format : AC-3
    Format/Info : Audio Coding 3
    Commercial name : Dolby Digital
    Codec ID : 6
    Duration : 4 min 22 s
    Bit rate mode : Constant
    Bit rate : 640 kb/s
    Channel(s) : 6 channels
    Channel layout : L R C LFE Ls Rs
    Sampling rate : 48.0 kHz
    Frame rate : 31.250 FPS (1536 SPF)
    Bit depth : 16 bits
    Compression mode : Lossy
    Delay relative to video : -33 ms
    Stream size : 20.0 MiB (4%)
    Language : 5.1
    Service kind : Complete Main


    Format : MPEG-TS
    File size : 713 MiB
    Duration : 6 min 17 s
    Overall bit rate mode : Variable
    Overall bit rate : 15.8 Mb/s

    Video
    ID : 273 (0x111)
    Menu ID : 504 (0x1F8)
    Format : AVC
    Format/Info : Advanced Video Codec
    Format profile : High@L4
    Format settings : CABAC / 2 Ref Frames
    Format settings, CABAC : Yes
    Format settings, RefFrames : 2 frames
    Codec ID : 27
    Duration : 6 min 17 s
    Bit rate mode : Variable
    Maximum bit rate : 24.0 Mb/s
    Width : 1 920 pixels
    Height : 1 080 pixels
    Display aspect ratio : 16:9
    Frame rate : 29.970 (30000/1001) FPS
    Color space : YUV
    Chroma subsampling : 4:2:0
    Bit depth : 8 bits
    Scan type : Interlaced
    Scan type, store method : Separated fields
    Scan order : Top Field First
    Color range : Limited
    Color primaries : BT.709
    Transfer characteristics : BT.709
    Matrix coefficients : BT.709

    Audio #1
    ID : 274 (0x112)
    Menu ID : 504 (0x1F8)
    Format : AAC LC SBR
    Format/Info : Advanced Audio Codec Low Complexity with Spectral Band Replication
    Commercial name : HE-AAC
    Format settings : NBC
    Muxing mode : LATM
    Codec ID : 17-5
    Duration : 6 min 17 s
    Bit rate mode : Variable
    Channel(s) : 2 channels
    Channel layout : L R
    Sampling rate : 48.0 kHz
    Frame rate : 23.438 FPS (2048 SPF)
    Compression mode : Lossy
    Language : Portuguese

    Audio #2
    ID : 275 (0x113)
    Menu ID : 504 (0x1F8)
    Format : AC-3
    Format/Info : Audio Coding 3
    Commercial name : Dolby Digital
    Codec ID : 6
    Duration : 6 min 17 s
    Bit rate mode : Constant
    Bit rate : 640 kb/s
    Channel(s) : 6 channels
    Channel layout : L R C LFE Ls Rs
    Sampling rate : 48.0 kHz
    Frame rate : 31.250 FPS (1536 SPF)
    Bit depth : 16 bits
    Compression mode : Lossy
    Stream size : 28.8 MiB (4%)
    Language : English
    Service kind : Complete Main

    Audio #3
    ID : 276 (0x114)
    Menu ID : 504 (0x1F8)
    Format : AAC LC SBR
    Format/Info : Advanced Audio Codec Low Complexity with Spectral Band Replication
    Commercial name : HE-AAC
    Format settings : NBC
    Muxing mode : LATM
    Codec ID : 17-5
    Duration : 6 min 17 s
    Bit rate mode : Variable
    Channel(s) : 2 channels
    Channel layout : L R
    Sampling rate : 48.0 kHz
    Frame rate : 23.438 FPS (2048 SPF)
    Compression mode : Lossy
    Language : des

    Audio #4
    ID : 277 (0x115)
    Menu ID : 504 (0x1F8)
    Format : AC-3
    Format/Info : Audio Coding 3
    Commercial name : Dolby Digital
    Codec ID : 6
    Duration : 6 min 17 s
    Bit rate mode : Constant
    Bit rate : 640 kb/s
    Channel(s) : 6 channels
    Channel layout : L R C LFE Ls Rs
    Sampling rate : 48.0 kHz
    Frame rate : 31.250 FPS (1536 SPF)
    Bit depth : 16 bits
    Compression mode : Lossy
    Stream size : 28.8 MiB (4%)
    Language : 5.1
    Service kind : Complete Main


    Format : MPEG-TS
    File size : 419 MiB
    Duration : 3 min 40 s
    Overall bit rate mode : Variable
    Overall bit rate : 15.9 Mb/s

    Video
    ID : 273 (0x111)
    Menu ID : 504 (0x1F8)
    Format : AVC
    Format/Info : Advanced Video Codec
    Format profile : High@L4
    Format settings : CABAC / 2 Ref Frames
    Format settings, CABAC : Yes
    Format settings, RefFrames : 2 frames
    Format settings, GOP : M=1, N=15
    Codec ID : 27
    Duration : 3 min 40 s
    Bit rate mode : Variable
    Maximum bit rate : 24.0 Mb/s
    Width : 1 920 pixels
    Height : 1 080 pixels
    Display aspect ratio : 16:9
    Frame rate : 29.970 (30000/1001) FPS
    Color space : YUV
    Chroma subsampling : 4:2:0
    Bit depth : 8 bits
    Scan type : Interlaced
    Scan type, store method : Separated fields
    Scan order : Top Field First
    Color range : Limited
    Color primaries : BT.709
    Transfer characteristics : BT.709
    Matrix coefficients : BT.709

    Audio #1
    ID : 274 (0x112)
    Menu ID : 504 (0x1F8)
    Format : AAC LC SBR
    Format/Info : Advanced Audio Codec Low Complexity with Spectral Band Replication
    Commercial name : HE-AAC
    Format settings : NBC
    Muxing mode : LATM
    Codec ID : 17-5
    Duration : 3 min 40 s
    Bit rate mode : Variable
    Channel(s) : 2 channels
    Channel layout : L R
    Sampling rate : 48.0 kHz
    Frame rate : 23.438 FPS (2048 SPF)
    Compression mode : Lossy
    Delay relative to video : -66 ms
    Language : Portuguese

    Audio #2
    ID : 275 (0x113)
    Menu ID : 504 (0x1F8)
    Format : AC-3
    Format/Info : Audio Coding 3
    Commercial name : Dolby Digital
    Codec ID : 6
    Duration : 3 min 40 s
    Bit rate mode : Constant
    Bit rate : 640 kb/s
    Channel(s) : 6 channels
    Channel layout : L R C LFE Ls Rs
    Sampling rate : 48.0 kHz
    Frame rate : 31.250 FPS (1536 SPF)
    Bit depth : 16 bits
    Compression mode : Lossy
    Delay relative to video : -66 ms
    Stream size : 16.8 MiB (4%)
    Language : English
    Service kind : Complete Main

    Audio #3
    ID : 276 (0x114)
    Menu ID : 504 (0x1F8)
    Format : AAC LC SBR
    Format/Info : Advanced Audio Codec Low Complexity with Spectral Band Replication
    Commercial name : HE-AAC
    Format settings : NBC
    Muxing mode : LATM
    Codec ID : 17-5
    Duration : 3 min 40 s
    Bit rate mode : Variable
    Channel(s) : 2 channels
    Channel layout : L R
    Sampling rate : 48.0 kHz
    Frame rate : 23.438 FPS (2048 SPF)
    Compression mode : Lossy
    Delay relative to video : -66 ms
    Language : des

    Audio #4
    ID : 277 (0x115)
    Menu ID : 504 (0x1F8)
    Format : AC-3
    Format/Info : Audio Coding 3
    Commercial name : Dolby Digital
    Codec ID : 6
    Duration : 3 min 40 s
    Bit rate mode : Constant
    Bit rate : 640 kb/s
    Channel(s) : 6 channels
    Channel layout : L R C LFE Ls Rs
    Sampling rate : 48.0 kHz
    Frame rate : 31.250 FPS (1536 SPF)
    Bit depth : 16 bits
    Compression mode : Lossy
    Delay relative to video : -66 ms
    Stream size : 16.8 MiB (4%)
    Language : 5.1
    Service kind : Complete Main


    Format : MPEG-TS
    File size : 527 MiB
    Duration : 4 min 38 s
    Overall bit rate mode : Variable
    Overall bit rate : 15.9 Mb/s

    Video
    ID : 273 (0x111)
    Menu ID : 504 (0x1F8)
    Format : AVC
    Format/Info : Advanced Video Codec
    Format profile : High@L4
    Format settings : CABAC / 2 Ref Frames
    Format settings, CABAC : Yes
    Format settings, RefFrames : 2 frames
    Format settings, GOP : M=3, N=15
    Codec ID : 27
    Duration : 4 min 38 s
    Bit rate mode : Variable
    Maximum bit rate : 24.0 Mb/s
    Width : 1 920 pixels
    Height : 1 080 pixels
    Display aspect ratio : 16:9
    Frame rate : 29.970 (30000/1001) FPS
    Color space : YUV
    Chroma subsampling : 4:2:0
    Bit depth : 8 bits
    Scan type : Interlaced
    Scan type, store method : Separated fields
    Scan order : Top Field First
    Color range : Limited
    Color primaries : BT.709
    Transfer characteristics : BT.709
    Matrix coefficients : BT.709

    Audio #1
    ID : 274 (0x112)
    Menu ID : 504 (0x1F8)
    Format : AAC LC SBR
    Format/Info : Advanced Audio Codec Low Complexity with Spectral Band Replication
    Commercial name : HE-AAC
    Format settings : NBC
    Muxing mode : LATM
    Codec ID : 17-5
    Duration : 4 min 38 s
    Bit rate mode : Variable
    Channel(s) : 2 channels
    Channel layout : L R
    Sampling rate : 48.0 kHz
    Frame rate : 23.438 FPS (2048 SPF)
    Compression mode : Lossy
    Delay relative to video : -66 ms
    Language : Portuguese

    Audio #2
    ID : 275 (0x113)
    Menu ID : 504 (0x1F8)
    Format : AC-3
    Format/Info : Audio Coding 3
    Commercial name : Dolby Digital
    Codec ID : 6
    Duration : 4 min 38 s
    Bit rate mode : Constant
    Bit rate : 640 kb/s
    Channel(s) : 6 channels
    Channel layout : L R C LFE Ls Rs
    Sampling rate : 48.0 kHz
    Frame rate : 31.250 FPS (1536 SPF)
    Bit depth : 16 bits
    Compression mode : Lossy
    Delay relative to video : -66 ms
    Stream size : 21.3 MiB (4%)
    Language : English
    Service kind : Complete Main

    Audio #3
    ID : 276 (0x114)
    Menu ID : 504 (0x1F8)
    Format : AAC LC SBR
    Format/Info : Advanced Audio Codec Low Complexity with Spectral Band Replication
    Commercial name : HE-AAC
    Format settings : NBC
    Muxing mode : LATM
    Codec ID : 17-5
    Duration : 4 min 38 s
    Bit rate mode : Variable
    Channel(s) : 2 channels
    Channel layout : L R
    Sampling rate : 48.0 kHz
    Frame rate : 23.438 FPS (2048 SPF)
    Compression mode : Lossy
    Delay relative to video : -66 ms
    Language : des

    Audio #4
    ID : 277 (0x115)
    Menu ID : 504 (0x1F8)
    Format : AC-3
    Format/Info : Audio Coding 3
    Commercial name : Dolby Digital
    Codec ID : 6
    Duration : 4 min 38 s
    Bit rate mode : Constant
    Bit rate : 640 kb/s
    Channel(s) : 6 channels
    Channel layout : L R C LFE Ls Rs
    Sampling rate : 48.0 kHz
    Frame rate : 31.250 FPS (1536 SPF)
    Bit depth : 16 bits
    Compression mode : Lossy
    Delay relative to video : -66 ms
    Stream size : 21.3 MiB (4%)
    Language : 5.1
    Service kind : Complete Main


    Format : MPEG-TS
    File size : 580 MiB
    Duration : 5 min 6 s
    Overall bit rate mode : Variable
    Overall bit rate : 15.9 Mb/s

    Video
    ID : 273 (0x111)
    Menu ID : 504 (0x1F8)
    Format : AVC
    Format/Info : Advanced Video Codec
    Format profile : High@L4
    Format settings : CABAC / 2 Ref Frames
    Format settings, CABAC : Yes
    Format settings, RefFrames : 2 frames
    Codec ID : 27
    Duration : 5 min 6 s
    Bit rate mode : Variable
    Maximum bit rate : 24.0 Mb/s
    Width : 1 920 pixels
    Height : 1 080 pixels
    Display aspect ratio : 16:9
    Frame rate : 29.970 (30000/1001) FPS
    Color space : YUV
    Chroma subsampling : 4:2:0
    Bit depth : 8 bits
    Scan type : Interlaced
    Scan type, store method : Separated fields
    Scan order : Top Field First
    Color range : Limited
    Color primaries : BT.709
    Transfer characteristics : BT.709
    Matrix coefficients : BT.709

    Audio #1
    ID : 274 (0x112)
    Menu ID : 504 (0x1F8)
    Format : AAC LC SBR
    Format/Info : Advanced Audio Codec Low Complexity with Spectral Band Replication
    Commercial name : HE-AAC
    Format settings : NBC
    Muxing mode : LATM
    Codec ID : 17-5
    Duration : 5 min 6 s
    Bit rate mode : Variable
    Channel(s) : 2 channels
    Channel layout : L R
    Sampling rate : 48.0 kHz
    Frame rate : 23.438 FPS (2048 SPF)
    Compression mode : Lossy
    Language : Portuguese

    Audio #2
    ID : 275 (0x113)
    Menu ID : 504 (0x1F8)
    Format : AC-3
    Format/Info : Audio Coding 3
    Commercial name : Dolby Digital
    Codec ID : 6
    Duration : 5 min 6 s
    Bit rate mode : Constant
    Bit rate : 640 kb/s
    Channel(s) : 6 channels
    Channel layout : L R C LFE Ls Rs
    Sampling rate : 48.0 kHz
    Frame rate : 31.250 FPS (1536 SPF)
    Bit depth : 16 bits
    Compression mode : Lossy
    Stream size : 23.4 MiB (4%)
    Language : English
    Service kind : Complete Main

    Audio #3
    ID : 276 (0x114)
    Menu ID : 504 (0x1F8)
    Format : AAC LC SBR
    Format/Info : Advanced Audio Codec Low Complexity with Spectral Band Replication
    Commercial name : HE-AAC
    Format settings : NBC
    Muxing mode : LATM
    Codec ID : 17-5
    Duration : 5 min 6 s
    Bit rate mode : Variable
    Channel(s) : 2 channels
    Channel layout : L R
    Sampling rate : 48.0 kHz
    Frame rate : 23.438 FPS (2048 SPF)
    Compression mode : Lossy
    Language : des

    Audio #4
    ID : 277 (0x115)
    Menu ID : 504 (0x1F8)
    Format : AC-3
    Format/Info : Audio Coding 3
    Commercial name : Dolby Digital
    Codec ID : 6
    Duration : 5 min 6 s
    Bit rate mode : Constant
    Bit rate : 640 kb/s
    Channel(s) : 6 channels
    Channel layout : L R C LFE Ls Rs
    Sampling rate : 48.0 kHz
    Frame rate : 31.250 FPS (1536 SPF)
    Bit depth : 16 bits
    Compression mode : Lossy
    Stream size : 23.4 MiB (4%)
    Language : 5.1
    Service kind : Complete Main


    Format : MPEG-TS
    File size : 320 MiB
    Duration : 2 min 49 s
    Overall bit rate mode : Variable
    Overall bit rate : 15.9 Mb/s

    Video
    ID : 273 (0x111)
    Menu ID : 504 (0x1F8)
    Format : AVC
    Format/Info : Advanced Video Codec
    Format profile : High@L4
    Format settings : CABAC / 2 Ref Frames
    Format settings, CABAC : Yes
    Format settings, RefFrames : 2 frames
    Codec ID : 27
    Duration : 2 min 49 s
    Bit rate mode : Variable
    Maximum bit rate : 24.0 Mb/s
    Width : 1 920 pixels
    Height : 1 080 pixels
    Display aspect ratio : 16:9
    Frame rate : 29.970 (30000/1001) FPS
    Color space : YUV
    Chroma subsampling : 4:2:0
    Bit depth : 8 bits
    Scan type : Interlaced
    Scan type, store method : Separated fields
    Scan order : Top Field First
    Color range : Limited
    Color primaries : BT.709
    Transfer characteristics : BT.709
    Matrix coefficients : BT.709

    Audio #1
    ID : 274 (0x112)
    Menu ID : 504 (0x1F8)
    Format : AAC LC SBR
    Format/Info : Advanced Audio Codec Low Complexity with Spectral Band Replication
    Commercial name : HE-AAC
    Format settings : NBC
    Muxing mode : LATM
    Codec ID : 17-5
    Duration : 2 min 48 s
    Bit rate mode : Variable
    Channel(s) : 2 channels
    Channel layout : L R
    Sampling rate : 48.0 kHz
    Frame rate : 23.438 FPS (2048 SPF)
    Compression mode : Lossy
    Language : Portuguese

    Audio #2
    ID : 275 (0x113)
    Menu ID : 504 (0x1F8)
    Format : AC-3
    Format/Info : Audio Coding 3
    Commercial name : Dolby Digital
    Codec ID : 6
    Duration : 2 min 48 s
    Bit rate mode : Constant
    Bit rate : 640 kb/s
    Channel(s) : 6 channels
    Channel layout : L R C LFE Ls Rs
    Sampling rate : 48.0 kHz
    Frame rate : 31.250 FPS (1536 SPF)
    Bit depth : 16 bits
    Compression mode : Lossy
    Stream size : 12.9 MiB (4%)
    Language : English
    Service kind : Complete Main

    Audio #3
    ID : 276 (0x114)
    Menu ID : 504 (0x1F8)
    Format : AAC LC SBR
    Format/Info : Advanced Audio Codec Low Complexity with Spectral Band Replication
    Commercial name : HE-AAC
    Format settings : NBC
    Muxing mode : LATM
    Codec ID : 17-5
    Duration : 2 min 48 s
    Bit rate mode : Variable
    Channel(s) : 2 channels
    Channel layout : L R
    Sampling rate : 48.0 kHz
    Frame rate : 23.438 FPS (2048 SPF)
    Compression mode : Lossy
    Language : des

    Audio #4
    ID : 277 (0x115)
    Menu ID : 504 (0x1F8)
    Format : AC-3
    Format/Info : Audio Coding 3
    Commercial name : Dolby Digital
    Codec ID : 6
    Duration : 2 min 48 s
    Bit rate mode : Constant
    Bit rate : 640 kb/s
    Channel(s) : 6 channels
    Channel layout : L R C LFE Ls Rs
    Sampling rate : 48.0 kHz
    Frame rate : 31.250 FPS (1536 SPF)
    Bit depth : 16 bits
    Compression mode : Lossy
    Stream size : 12.9 MiB (4%)
    Language : 5.1
    Service kind : Complete Main


    Link(s):
    Hidden Content:
    You must either reply or click 'Like' to see the hidden information contained here.
     
    Last edited: Sep 18, 2018
  2. Loading...


  3. CELOBRAZiL

    CELOBRAZiL Well-Known Member Capper V . I . P. Donor

    Joined:
    Oct 2, 2013
    Messages:
    8,759
    Likes Received:
    32,285
  4. CELOBRAZiL

    CELOBRAZiL Well-Known Member Capper V . I . P. Donor

    Joined:
    Oct 2, 2013
    Messages:
    8,759
    Likes Received:
    32,285
    Added mega links! :)
     
  5. Novalfajri1993

    Novalfajri1993 Active Member

    Joined:
    May 5, 2017
    Messages:
    522
    Likes Received:
    38
    Thanks
     
    CELOBRAZiL likes this.
  6. Dream66

    Dream66 Well-Known Member

    Joined:
    Jan 24, 2016
    Messages:
    1,137
    Likes Received:
    328
    Thank You :)
     
    CELOBRAZiL likes this.
  7. pieperspam

    pieperspam Member Donor

    Joined:
    Jul 10, 2016
    Messages:
    279
    Likes Received:
    10
    thanks
     
    CELOBRAZiL likes this.
  8. Fabio Barbosa

    Fabio Barbosa Well-Known Member

    Joined:
    Sep 28, 2015
    Messages:
    936
    Likes Received:
    389
    Thanks
     
    CELOBRAZiL likes this.
  9. mandlasz

    mandlasz Active Member

    Joined:
    Sep 15, 2018
    Messages:
    924
    Likes Received:
    106
    thanks
     
    CELOBRAZiL likes this.
  10. multimediafm

    multimediafm Well-Known Member Archiver Donor

    Joined:
    Mar 27, 2014
    Messages:
    17,942
    Likes Received:
    1,703
    Thanks:)
     
    CELOBRAZiL likes this.
  11. oscarerl

    oscarerl Member

    Joined:
    Jul 8, 2017
    Messages:
    73
    Likes Received:
    7
    thanks
     
    CELOBRAZiL likes this.
  12. sincnarf

    sincnarf Active Member

    Joined:
    Nov 24, 2018
    Messages:
    684
    Likes Received:
    34
    Thanks
     
    CELOBRAZiL likes this.
  13. dajalma

    dajalma Active Member

    Joined:
    May 27, 2016
    Messages:
    726
    Likes Received:
    51
    thanks
     
    CELOBRAZiL likes this.
  14. Jenkins

    Jenkins Well-Known Member

    Joined:
    May 30, 2019
    Messages:
    24,637
    Likes Received:
    645
    THANKS
     
  15. Josemunozphoto

    Josemunozphoto Member

    Joined:
    Oct 11, 2018
    Messages:
    177
    Likes Received:
    16
    thank you
     
    CELOBRAZiL likes this.
  16. Setzer

    Setzer New Member

    Joined:
    Sep 23, 2018
    Messages:
    7
    Likes Received:
    1
    Thanks
     
    CELOBRAZiL likes this.
  17. bob smith

    bob smith Member

    Joined:
    Mar 20, 2015
    Messages:
    69
    Likes Received:
    10
    thanks
     
    CELOBRAZiL likes this.