Pussycat Dolls-Don't Cha (TopOfThePopsIt1291005-AlexeiMV)

Discussion in 'SD Live Performances' started by miguelmr87, Feb 13, 2020.

  1. miguelmr87

    miguelmr87 Well-Known Member

    Joined:
    Dec 20, 2013
    Messages:
    2,714
    Likes Received:
    623
    [​IMG]
    Pussycat Dolls-Don't Cha (TopOfThePopsIt1291005-AlexeiMV).mpg
    Format : MPEG-PS
    File size : 171 MiB
    Duration : 3 min 3 s
    Overall bit rate mode : Variable
    Overall bit rate : 7 818 kb/s
    Writing library : (c) 1997-2004 Womble Multimedia, Inc. / MPEG-VCR V3.14 (08/2003) / Apr 6 2004
    Video
    ID : 224 (0xE0)
    Format : MPEG Video
    Format version : Version 2
    Format profile : Main@Main
    Format settings : CustomMatrix / BVOP
    Format settings, BVOP : Yes
    Format settings, Matrix : Custom
    Format settings, GOP : M=3, N=12
    Format settings, picture structure : Frame
    Duration : 3 min 3 s
    Bit rate mode : Variable
    Bit rate : 7 406 kb/s
    Maximum bit rate : 15.0 Mb/s
    Width : 704 pixels
    Height : 576 pixels
    Display aspect ratio : 4:3
    Frame rate : 25.000 FPS
    Standard : PAL
    Color space : YUV
    Chroma subsampling : 4:2:0
    Bit depth : 8 bits
    Scan type : Interlaced
    Scan order : Top Field First
    Compression mode : Lossy
    Bits/(Pixel*Frame) : 0.731
    Time code of first frame : 00:00:00:00
    Time code source : Group of pictures header
    GOP, Open/Closed : Open
    GOP, Open/Closed of first frame : Closed
    Stream size : 162 MiB (95%)
    Writing library : (c) 1997-2004 Womble Multimedia, Inc. / MPEG-VCR V3.14 (08/2003) / Apr 6 2004
    Audio
    ID : 192 (0xC0)
    Format : MPEG Audio
    Format version : Version 1
    Format profile : Layer 2
    Duration : 3 min 3 s
    Bit rate mode : Constant
    Bit rate : 256 kb/s
    Channel(s) : 2 channels
    Sampling rate : 48.0 kHz
    Frame rate : 41.667 FPS (1152 SPF)
    Compression mode : Lossy
    Stream size : 5.60 MiB (3%)

    Hidden Content:
    You must reply before you can see the hidden data contained here.
     
    Last edited: Feb 15, 2020
    plwww, tf135 and toonbbv like this.
  2. Loading...


  3. 12wurzel

    12wurzel Active Member

    Joined:
    Oct 16, 2016
    Messages:
    929
    Likes Received:
    85
    thanks
     
  4. mmg1818

    mmg1818 Mabel, Ava Max.

    Joined:
    Dec 24, 2013
    Messages:
    814
    Likes Received:
    2,723
    thanks.
     
  5. toonbbv

    toonbbv Well-Known Member

    Joined:
    Dec 11, 2013
    Messages:
    2,606
    Likes Received:
    188
    thank you
     
  6. Gustavofl91

    Gustavofl91 Gustavofl

    Joined:
    May 11, 2017
    Messages:
    1,031
    Likes Received:
    84
  7. manhunter

    manhunter Active Member

    Joined:
    Jun 8, 2016
    Messages:
    570
    Likes Received:
    65
    THANK YOU!!!
     
  8. FanofTheStars

    FanofTheStars Well-Known Member

    Joined:
    Feb 11, 2017
    Messages:
    4,309
    Likes Received:
    794
    Much Thanks For This Performance. :)

    P.S. @miguelmr87 Could we get a re-up please. Getting this message.

    Well, looks like we can’t go any further
    The file you requested has been blocked for a violation of our Terms of Service.

    Thank you.
     
  9. tf135

    tf135 Well-Known Member

    Joined:
    Nov 14, 2014
    Messages:
    4,536
    Likes Received:
    250
    thanks
     
  10. plwww

    plwww Active Member

    Joined:
    May 28, 2016
    Messages:
    984
    Likes Received:
    69
    thanks
     
  11. suhas89

    suhas89 Member

    Joined:
    Apr 2, 2014
    Messages:
    50
    Likes Received:
    97
    thanks
     
  12. Wes Halliwell

    Wes Halliwell Active Member

    Joined:
    Dec 17, 2014
    Messages:
    755
    Likes Received:
    48
  13. miguelmr87

    miguelmr87 Well-Known Member

    Joined:
    Dec 20, 2013
    Messages:
    2,714
    Likes Received:
    623
    reup,,,,,,
     
  14. mmg1818

    mmg1818 Mabel, Ava Max.

    Joined:
    Dec 24, 2013
    Messages:
    814
    Likes Received:
    2,723
  15. exterminador

    exterminador Well-Known Member

    Joined:
    Jul 3, 2016
    Messages:
    3,207
    Likes Received:
    308
  16. miguelmr87

    miguelmr87 Well-Known Member

    Joined:
    Dec 20, 2013
    Messages:
    2,714
    Likes Received:
    623
  17. mmg1818

    mmg1818 Mabel, Ava Max.

    Joined:
    Dec 24, 2013
    Messages:
    814
    Likes Received:
    2,723
  18. miguelmr87

    miguelmr87 Well-Known Member

    Joined:
    Dec 20, 2013
    Messages:
    2,714
    Likes Received:
    623
    new link
     
  19. mmg1818

    mmg1818 Mabel, Ava Max.

    Joined:
    Dec 24, 2013
    Messages:
    814
    Likes Received:
    2,723
    drive.google is ok, thanks.
     
  20. apl3

    apl3 Well-Known Member

    Joined:
    Jun 11, 2017
    Messages:
    1,837
    Likes Received:
    52
  21. mcslimshady

    mcslimshady Well-Known Member

    Joined:
    Jun 20, 2016
    Messages:
    2,882
    Likes Received:
    127