SDTV Pussycat Dolls - Doll Domination Tour (Live From Sheffeld)

Discussion in 'SD Live Performances' started by ciro93dolls, May 12, 2017.

  1. ciro93dolls

    ciro93dolls Active Member

    Joined:
    Sep 22, 2014
    Messages:
    150
    Likes Received:
    147
    [​IMG]


    Format : mobi
    Codec ID : mobi (mobi/avc1/mp42/isom)
    File size : 873 MiB
    Duration : 1 h 32 min
    Overall bit rate mode : Variable
    Overall bit rate : 1 317 kb/s

    Video
    ID : 1
    Format : AVC
    Format/Info : Advanced Video Codec
    Format profile : Baseline@L3
    Format settings, CABAC : No
    Format settings, ReFrames : 1 frame
    Format settings, GOP : M=1, N=60
    Codec ID : avc1
    Codec ID/Info : Advanced Video Coding
    Duration : 1 h 32 min
    Bit rate : 1 189 kb/s
    Width : 640 pixels
    Height : 480 pixels
    Display aspect ratio : 4:3
    Frame rate mode : Constant
    Frame rate : 29.970 (30000/1001) FPS
    Color space : YUV
    Chroma subsampling : 4:2:0
    Bit depth : 8 bits
    Scan type : Progressive
    Bits/(Pixel*Frame) : 0.129
    Stream size : 788 MiB (90%)
    Language : English

    Audio
    ID : 2
    Format : AAC
    Format/Info : Advanced Audio Codec
    Format profile : LC
    Codec ID : 40
    Duration : 1 h 32 min
    Bit rate mode : Variable
    Bit rate : 123 kb/s
    Channel(s) : 2 channels
    Channel positions : Front: L R
    Sampling rate : 48.0 kHz
    Frame rate : 46.875 FPS (1024 spf)
    Compression mode : Lossy
    Stream size : 81.5 MiB (9%)
    Language : English








    Hidden Content:
    You must reply before you can see the hidden data contained here.
     
  2. Loading...


  3. hanshermann

    hanshermann Well-Known Member Uploader

    Joined:
    Aug 24, 2016
    Messages:
    6,951
    Likes Received:
    11,256
    wahts taht
     
  4. Pedro Correia

    Pedro Correia Well-Known Member

    Joined:
    Apr 17, 2014
    Messages:
    1,326
    Likes Received:
    140
    Thank you so much!
     
  5. Paulorpaes

    Paulorpaes Member

    Joined:
    Sep 3, 2016
    Messages:
    68
    Likes Received:
    5
  6. Cesar

    Cesar Member

    Joined:
    Nov 11, 2013
    Messages:
    466
    Likes Received:
    16
    Thank
     
  7. exterminador

    exterminador Well-Known Member

    Joined:
    Jul 3, 2016
    Messages:
    2,405
    Likes Received:
    208
  8. sideshow_bob

    sideshow_bob Well-Known Member

    Joined:
    Dec 20, 2013
    Messages:
    3,236
    Likes Received:
    234
    Thank you
     
  9. markjackson

    markjackson Active Member

    Joined:
    Jan 8, 2014
    Messages:
    807
    Likes Received:
    47
    thank you so much!
     
  10. Tumate20

    Tumate20 Well-Known Member

    Joined:
    Sep 13, 2014
    Messages:
    180
    Likes Received:
    512
    thanks
     
  11. lim

    lim Well-Known Member

    Joined:
    Nov 8, 2013
    Messages:
    2,033
    Likes Received:
    76
    thank you
     
  12. waat

    waat Member

    Joined:
    Jan 19, 2015
    Messages:
    439
    Likes Received:
    10
    Thank you so much!
     
  13. nico1234

    nico1234 Member

    Joined:
    Jun 16, 2017
    Messages:
    50
    Likes Received:
    0
    thanks
     
  14. mjh13578

    mjh13578 Member

    Joined:
    Dec 7, 2013
    Messages:
    427
    Likes Received:
    13
    Thank you!:victory:
     
  15. Tiago

    Tiago Well-Known Member

    Joined:
    Dec 7, 2013
    Messages:
    2,282
    Likes Received:
    83
    thanks
     
  16. migsou

    migsou Member

    Joined:
    Oct 2, 2014
    Messages:
    510
    Likes Received:
    19
    thanx
     
  17. FreakumBoy

    FreakumBoy Member

    Joined:
    Feb 16, 2015
    Messages:
    139
    Likes Received:
    18
    Thank you so much for sharing this!!!

    By the way, @ciro93dolls, is there any reason why this is the only concert filmed in an .avi format?
     
    Last edited: Jul 29, 2017
  18. Amauri Luiz

    Amauri Luiz Well-Known Member

    Joined:
    Jan 14, 2014
    Messages:
    1,931
    Likes Received:
    74
  19. satorumimi

    satorumimi Member

    Joined:
    May 22, 2017
    Messages:
    71
    Likes Received:
    6
    てゃんks
     
  20. hausofdexter

    hausofdexter Member

    Joined:
    Apr 16, 2017
    Messages:
    34
    Likes Received:
    1
    thanks
     
  21. Marcos Sannin

    Marcos Sannin Well-Known Member

    Joined:
    Dec 11, 2014
    Messages:
    965
    Likes Received:
    808
    thank you