SDTV Pussycat Dolls - Doll Domination Tour (Live From London 28th January 2009)

Discussion in 'SD Live Performances' started by ciro93dolls, May 12, 2017.

  1. ciro93dolls

    ciro93dolls Active Member

    Joined:
    Sep 22, 2014
    Messages:
    150
    Likes Received:
    142
    [​IMG]
    Format : mobi
    Codec ID : mobi (mobi/avc1/mp42/isom)
    File size : 881 MiB
    Duration : 1 h 33 min
    Overall bit rate mode : Variable
    Overall bit rate : 1 311 kb/s

    Video
    ID : 1
    Format : AVC
    Format/Info : Advanced Video Codec
    Format profile : Baseline@L3
    Format settings, CABAC : No
    Format settings, ReFrames : 1 frame
    Format settings, GOP : M=1, N=60
    Codec ID : avc1
    Codec ID/Info : Advanced Video Coding
    Duration : 1 h 33 min
    Bit rate : 1 184 kb/s
    Width : 640 pixels
    Height : 480 pixels
    Display aspect ratio : 4:3
    Frame rate mode : Constant
    Frame rate : 29.970 (30000/1001) FPS
    Color space : YUV
    Chroma subsampling : 4:2:0
    Bit depth : 8 bits
    Scan type : Progressive
    Bits/(Pixel*Frame) : 0.129
    Stream size : 796 MiB (90%)
    Language : English

    Audio
    ID : 2
    Format : AAC
    Format/Info : Advanced Audio Codec
    Format profile : LC
    Codec ID : 40
    Duration : 1 h 33 min
    Bit rate mode : Variable
    Bit rate : 122 kb/s
    Channel(s) : 2 channels
    Channel positions : Front: L R
    Sampling rate : 48.0 kHz
    Frame rate : 46.875 FPS (1024 spf)
    Compression mode : Lossy
    Stream size : 81.8 MiB (9%)
    Language : English

    Hidden Content:
    You must reply before you can see the hidden data contained here.
     
    Last edited: May 12, 2017
  2. Loading...


  3. hanshermann

    hanshermann Well-Known Member Uploader

    Joined:
    Aug 24, 2016
    Messages:
    6,313
    Likes Received:
    9,051
    wahts taht
     
  4. ciro93dolls

    ciro93dolls Active Member

    Joined:
    Sep 22, 2014
    Messages:
    150
    Likes Received:
    142
    do you mean What's that? it's doll domination tour recordered on usb wristband
     
  5. ciro93dolls

    ciro93dolls Active Member

    Joined:
    Sep 22, 2014
    Messages:
    150
    Likes Received:
    142
  6. Paulorpaes

    Paulorpaes Member

    Joined:
    Sep 3, 2016
    Messages:
    68
    Likes Received:
    5
    davhgsbxdg
     
  7. exterminador

    exterminador Well-Known Member

    Joined:
    Jul 3, 2016
    Messages:
    2,260
    Likes Received:
    195
  8. Pedro Correia

    Pedro Correia Well-Known Member

    Joined:
    Apr 17, 2014
    Messages:
    1,195
    Likes Received:
    130
  9. yoereyesr21

    yoereyesr21 Active Member

    Joined:
    Mar 12, 2016
    Messages:
    270
    Likes Received:
    39
  10. sideshow_bob

    sideshow_bob Well-Known Member

    Joined:
    Dec 20, 2013
    Messages:
    3,190
    Likes Received:
    227
  11. markjackson

    markjackson Active Member

    Joined:
    Jan 8, 2014
    Messages:
    668
    Likes Received:
    42
    thank you !
     
  12. kryza

    kryza Member

    Joined:
    Oct 23, 2013
    Messages:
    629
    Likes Received:
    22
    thank u
     
  13. lim

    lim Well-Known Member

    Joined:
    Nov 8, 2013
    Messages:
    2,026
    Likes Received:
    76
    thank you
     
  14. waat

    waat Member

    Joined:
    Jan 19, 2015
    Messages:
    439
    Likes Received:
    10
    Thank you so much!
     
  15. nico1234

    nico1234 Member

    Joined:
    Jun 16, 2017
    Messages:
    50
    Likes Received:
    0
    thanks
     
  16. FreakumBoy

    FreakumBoy Member

    Joined:
    Feb 16, 2015
    Messages:
    131
    Likes Received:
    13
    Thank you so much for sharing this!!!
     
  17. TEXTCARL

    TEXTCARL Active Member

    Joined:
    Sep 5, 2016
    Messages:
    173
    Likes Received:
    79
    thank u bb
     
  18. Emilly Nobre

    Emilly Nobre Member

    Joined:
    May 27, 2015
    Messages:
    90
    Likes Received:
    3
  19. matti_9876

    matti_9876 Member

    Joined:
    Aug 13, 2017
    Messages:
    48
    Likes Received:
    0
    Thank You
     
  20. Tiago

    Tiago Well-Known Member

    Joined:
    Dec 7, 2013
    Messages:
    2,131
    Likes Received:
    77
    thanks
     
  21. Amauri Luiz

    Amauri Luiz Well-Known Member

    Joined:
    Jan 14, 2014
    Messages:
    1,783
    Likes Received:
    70