SDTV Pussycat Dolls - Doll Domination Tour (Live From London 27th January 2009)

Discussion in 'SD Live Performances' started by ciro93dolls, May 12, 2017.

  1. ciro93dolls

    ciro93dolls Active Member

    Joined:
    Sep 22, 2014
    Messages:
    166
    Likes Received:
    158
    [​IMG]
    Format : mobi
    Codec ID : mobi (mobi/avc1/mp42/isom)
    File size : 899 MiB
    Duration : 1 h 34 min
    Overall bit rate mode : Variable
    Overall bit rate : 1 327 kb/s

    Video
    ID : 1
    Format : AVC
    Format/Info : Advanced Video Codec
    Format profile : Baseline@L3
    Format settings, CABAC : No
    Format settings, ReFrames : 1 frame
    Format settings, GOP : M=1, N=60
    Codec ID : avc1
    Codec ID/Info : Advanced Video Coding
    Duration : 1 h 34 min
    Bit rate : 1 200 kb/s
    Width : 640 pixels
    Height : 480 pixels
    Display aspect ratio : 4:3
    Frame rate mode : Constant
    Frame rate : 29.970 (30000/1001) FPS
    Color space : YUV
    Chroma subsampling : 4:2:0
    Bit depth : 8 bits
    Scan type : Progressive
    Bits/(Pixel*Frame) : 0.130
    Stream size : 812 MiB (90%)
    Language : English

    Audio
    ID : 2
    Format : AAC
    Format/Info : Advanced Audio Codec
    Format profile : LC
    Codec ID : 40
    Duration : 1 h 34 min
    Bit rate mode : Variable
    Bit rate : 123 kb/s
    Channel(s) : 2 channels
    Channel positions : Front: L R
    Sampling rate : 48.0 kHz
    Frame rate : 46.875 FPS (1024 spf)
    Compression mode : Lossy
    Stream size : 82.9 MiB (9%)
    Language : English








    Hidden Content:
    You must reply before you can see the hidden data contained here.
     
  2. Loading...


  3. hanshermann

    hanshermann Well-Known Member Uploader

    Joined:
    Aug 24, 2016
    Messages:
    7,822
    Likes Received:
    16,565
    wahts taht
     
  4. Paulorpaes

    Paulorpaes Member

    Joined:
    Sep 3, 2016
    Messages:
    76
    Likes Received:
    6
    fschxtgdxj
     
  5. exterminador

    exterminador Well-Known Member

    Joined:
    Jul 3, 2016
    Messages:
    2,808
    Likes Received:
    250
  6. Pedro Correia

    Pedro Correia Well-Known Member

    Joined:
    Apr 17, 2014
    Messages:
    1,837
    Likes Received:
    201
  7. sideshow_bob

    sideshow_bob Well-Known Member

    Joined:
    Dec 20, 2013
    Messages:
    3,374
    Likes Received:
    363
  8. markjackson

    markjackson Well-Known Member

    Joined:
    Jan 8, 2014
    Messages:
    1,093
    Likes Received:
    58
    thank you so much!
     
  9. Niclove21

    Niclove21 Member

    Joined:
    Sep 2, 2016
    Messages:
    210
    Likes Received:
    20
    Thanks
     
  10. MACHADO

    MACHADO Active Member

    Joined:
    Jun 12, 2017
    Messages:
    604
    Likes Received:
    40
    Gracias
     
  11. lim

    lim Well-Known Member

    Joined:
    Nov 8, 2013
    Messages:
    2,427
    Likes Received:
    80
    thank you
     
  12. waat

    waat Member

    Joined:
    Jan 19, 2015
    Messages:
    473
    Likes Received:
    10
    Thank you so much!
     
  13. waat

    waat Member

    Joined:
    Jan 19, 2015
    Messages:
    473
    Likes Received:
    10
    Thank you so much!
     
  14. nico1234

    nico1234 Member

    Joined:
    Jun 16, 2017
    Messages:
    51
    Likes Received:
    0
    thanks
     
  15. lucas.alexaander

    lucas.alexaander Member

    Joined:
    Aug 29, 2016
    Messages:
    106
    Likes Received:
    20
  16. Fonny

    Fonny Member

    Joined:
    Dec 1, 2016
    Messages:
    91
    Likes Received:
    14
    thanks
     
  17. FreakumBoy

    FreakumBoy Active Member

    Joined:
    Feb 16, 2015
    Messages:
    184
    Likes Received:
    29
    Thank you so much for sharing this!!!
     
  18. brunolima284

    brunolima284 Active Member

    Joined:
    May 13, 2017
    Messages:
    524
    Likes Received:
    26
    In The Tour Best
     
  19. JUNINHOSZ

    JUNINHOSZ Well-Known Member

    Joined:
    May 23, 2014
    Messages:
    2,448
    Likes Received:
    67
    thaanks!
     
  20. yoereyesr21

    yoereyesr21 Active Member

    Joined:
    Mar 12, 2016
    Messages:
    453
    Likes Received:
    55
  21. Humberto

    Humberto Member

    Joined:
    Dec 9, 2013
    Messages:
    288
    Likes Received:
    17
    thanksss uuu