SDTV Pussycat Dolls - Doll Domination Tour (Live From Glasgow)

Discussion in 'SD Live Performances' started by ciro93dolls, May 12, 2017.

  1. nenosouza

    nenosouza Member

    Joined:
    Nov 13, 2017
    Messages:
    32
    Likes Received:
    0
    thank you
     
  2. matti_9876

    matti_9876 Member

    Joined:
    Aug 13, 2017
    Messages:
    65
    Likes Received:
    0
  3. aria99

    aria99 Active Member

    Joined:
    Jun 3, 2015
    Messages:
    567
    Likes Received:
    99
    thanks
     
  4. migsou

    migsou Active Member

    Joined:
    Oct 2, 2014
    Messages:
    660
    Likes Received:
    61
    thanx
     
  5. rasputin

    rasputin Active Member

    Joined:
    Dec 9, 2015
    Messages:
    962
    Likes Received:
    60
    many thanx
     
  6. Amauri Luiz

    Amauri Luiz Well-Known Member

    Joined:
    Jan 14, 2014
    Messages:
    2,224
    Likes Received:
    105
  7. brunolima284

    brunolima284 Active Member

    Joined:
    May 13, 2017
    Messages:
    524
    Likes Received:
    26
  8. Albert90

    Albert90 Active Member

    Joined:
    May 27, 2017
    Messages:
    696
    Likes Received:
    68
    thanks
     
  9. corey2007

    corey2007 Member

    Joined:
    May 10, 2016
    Messages:
    30
    Likes Received:
    0
  10. fendyzachariey

    fendyzachariey Member

    Joined:
    Jun 23, 2017
    Messages:
    507
    Likes Received:
    14
  11. tkfxhh17

    tkfxhh17 New Member

    Joined:
    Nov 4, 2016
    Messages:
    17
    Likes Received:
    2
    THNKS
    [​IMG]
    Format : mobi
    Codec ID : mobi (mobi/avc1/mp42/isom)
    File size : 864 MiB
    Duration : 1 h 34 min
    Overall bit rate mode : Variable
    Overall bit rate : 1 285 kb/s

    Video
    ID : 1
    Format : AVC
    Format/Info : Advanced Video Codec
    Format profile : Baseline@L3
    Format settings, CABAC : No
    Format settings, ReFrames : 1 frame
    Format settings, GOP : M=1, N=60
    Codec ID : avc1
    Codec ID/Info : Advanced Video Coding
    Duration : 1 h 34 min
    Bit rate : 1 168 kb/s
    Width : 640 pixels
    Height : 480 pixels
    Display aspect ratio : 4:3
    Frame rate mode : Constant
    Frame rate : 29.970 (30000/1001) FPS
    Color space : YUV
    Chroma subsampling : 4:2:0
    Bit depth : 8 bits
    Scan type : Progressive
    Bits/(Pixel*Frame) : 0.127
    Stream size : 786 MiB (91%)
    Language : English

    Audio
    ID : 2
    Format : AAC
    Format/Info : Advanced Audio Codec
    Format profile : LC
    Codec ID : 40
    Duration : 1 h 34 min
    Bit rate mode : Variable
    Bit rate : 111 kb/s
    Channel(s) : 2 channels
    Channel positions : Front: L R
    Sampling rate : 48.0 kHz
    Frame rate : 46.875 FPS (1024 spf)
    Compression mode : Lossy
    Stream size : 75.0 MiB (9%)
    Language : English



    ***Hidden content cannot be quoted.***
    [/QUOTE]
     
  12. gilsimars

    gilsimars Member

    Joined:
    Apr 16, 2018
    Messages:
    69
    Likes Received:
    4
    Miss this girls
    [​IMG]
    Format : mobi
    Codec ID : mobi (mobi/avc1/mp42/isom)
    File size : 864 MiB
    Duration : 1 h 34 min
    Overall bit rate mode : Variable
    Overall bit rate : 1 285 kb/s

    Video
    ID : 1
    Format : AVC
    Format/Info : Advanced Video Codec
    Format profile : Baseline@L3
    Format settings, CABAC : No
    Format settings, ReFrames : 1 frame
    Format settings, GOP : M=1, N=60
    Codec ID : avc1
    Codec ID/Info : Advanced Video Coding
    Duration : 1 h 34 min
    Bit rate : 1 168 kb/s
    Width : 640 pixels
    Height : 480 pixels
    Display aspect ratio : 4:3
    Frame rate mode : Constant
    Frame rate : 29.970 (30000/1001) FPS
    Color space : YUV
    Chroma subsampling : 4:2:0
    Bit depth : 8 bits
    Scan type : Progressive
    Bits/(Pixel*Frame) : 0.127
    Stream size : 786 MiB (91%)
    Language : English

    Audio
    ID : 2
    Format : AAC
    Format/Info : Advanced Audio Codec
    Format profile : LC
    Codec ID : 40
    Duration : 1 h 34 min
    Bit rate mode : Variable
    Bit rate : 111 kb/s
    Channel(s) : 2 channels
    Channel positions : Front: L R
    Sampling rate : 48.0 kHz
    Frame rate : 46.875 FPS (1024 spf)
    Compression mode : Lossy
    Stream size : 75.0 MiB (9%)
    Language : English



    ***Hidden content cannot be quoted.***
    [/QUOTE]
     
  13. gilsimars

    gilsimars Member

    Joined:
    Apr 16, 2018
    Messages:
    69
    Likes Received:
    4
    password


     
  14. hausofdexter

    hausofdexter Member

    Joined:
    Apr 16, 2017
    Messages:
    37
    Likes Received:
    1
    thanks
     
  15. Marcos Sannin

    Marcos Sannin Well-Known Member

    Joined:
    Dec 11, 2014
    Messages:
    1,115
    Likes Received:
    1,368
    thank you
     
  16. angelotico

    angelotico Member

    Joined:
    Jun 6, 2017
    Messages:
    98
    Likes Received:
    10
    thank youuu
     
  17. Normindamida

    Normindamida Member

    Joined:
    Mar 30, 2018
    Messages:
    60
    Likes Received:
    0