SDTV Pussycat Dolls - Doll Domination Tour (Live From Glasgow)

Discussion in 'SD Live Performances' started by ciro93dolls, May 12, 2017.

  1. nenosouza

    nenosouza New Member

    Joined:
    Nov 13, 2017
    Messages:
    29
    Likes Received:
    0
    thank you
     
  2. matti_9876

    matti_9876 Member

    Joined:
    Aug 13, 2017
    Messages:
    48
    Likes Received:
    0
  3. aria99

    aria99 Active Member

    Joined:
    Jun 3, 2015
    Messages:
    416
    Likes Received:
    74
    thanks
     
  4. migsou

    migsou Member

    Joined:
    Oct 2, 2014
    Messages:
    467
    Likes Received:
    17
    thanx
     
  5. rasputin

    rasputin Active Member

    Joined:
    Dec 9, 2015
    Messages:
    502
    Likes Received:
    33
    many thanx
     
  6. Amauri Luiz

    Amauri Luiz Well-Known Member

    Joined:
    Jan 14, 2014
    Messages:
    1,783
    Likes Received:
    70
  7. brunolima284

    brunolima284 Member

    Joined:
    May 13, 2017
    Messages:
    351
    Likes Received:
    15
  8. Albert90

    Albert90 Active Member

    Joined:
    May 27, 2017
    Messages:
    591
    Likes Received:
    40
    thanks
     
  9. corey2007

    corey2007 New Member

    Joined:
    May 10, 2016
    Messages:
    23
    Likes Received:
    0
  10. fendyzachariey

    fendyzachariey Member

    Joined:
    Jun 23, 2017
    Messages:
    377
    Likes Received:
    7
  11. tkfxhh17

    tkfxhh17 New Member

    Joined:
    Nov 4, 2016
    Messages:
    17
    Likes Received:
    2
    THNKS
    [​IMG]
    Format : mobi
    Codec ID : mobi (mobi/avc1/mp42/isom)
    File size : 864 MiB
    Duration : 1 h 34 min
    Overall bit rate mode : Variable
    Overall bit rate : 1 285 kb/s

    Video
    ID : 1
    Format : AVC
    Format/Info : Advanced Video Codec
    Format profile : Baseline@L3
    Format settings, CABAC : No
    Format settings, ReFrames : 1 frame
    Format settings, GOP : M=1, N=60
    Codec ID : avc1
    Codec ID/Info : Advanced Video Coding
    Duration : 1 h 34 min
    Bit rate : 1 168 kb/s
    Width : 640 pixels
    Height : 480 pixels
    Display aspect ratio : 4:3
    Frame rate mode : Constant
    Frame rate : 29.970 (30000/1001) FPS
    Color space : YUV
    Chroma subsampling : 4:2:0
    Bit depth : 8 bits
    Scan type : Progressive
    Bits/(Pixel*Frame) : 0.127
    Stream size : 786 MiB (91%)
    Language : English

    Audio
    ID : 2
    Format : AAC
    Format/Info : Advanced Audio Codec
    Format profile : LC
    Codec ID : 40
    Duration : 1 h 34 min
    Bit rate mode : Variable
    Bit rate : 111 kb/s
    Channel(s) : 2 channels
    Channel positions : Front: L R
    Sampling rate : 48.0 kHz
    Frame rate : 46.875 FPS (1024 spf)
    Compression mode : Lossy
    Stream size : 75.0 MiB (9%)
    Language : English



    ***Hidden content cannot be quoted.***
    [/QUOTE]
     
  12. gilsimars

    gilsimars Member

    Joined:
    Apr 16, 2018
    Messages:
    50
    Likes Received:
    2
    Miss this girls
    [​IMG]
    Format : mobi
    Codec ID : mobi (mobi/avc1/mp42/isom)
    File size : 864 MiB
    Duration : 1 h 34 min
    Overall bit rate mode : Variable
    Overall bit rate : 1 285 kb/s

    Video
    ID : 1
    Format : AVC
    Format/Info : Advanced Video Codec
    Format profile : Baseline@L3
    Format settings, CABAC : No
    Format settings, ReFrames : 1 frame
    Format settings, GOP : M=1, N=60
    Codec ID : avc1
    Codec ID/Info : Advanced Video Coding
    Duration : 1 h 34 min
    Bit rate : 1 168 kb/s
    Width : 640 pixels
    Height : 480 pixels
    Display aspect ratio : 4:3
    Frame rate mode : Constant
    Frame rate : 29.970 (30000/1001) FPS
    Color space : YUV
    Chroma subsampling : 4:2:0
    Bit depth : 8 bits
    Scan type : Progressive
    Bits/(Pixel*Frame) : 0.127
    Stream size : 786 MiB (91%)
    Language : English

    Audio
    ID : 2
    Format : AAC
    Format/Info : Advanced Audio Codec
    Format profile : LC
    Codec ID : 40
    Duration : 1 h 34 min
    Bit rate mode : Variable
    Bit rate : 111 kb/s
    Channel(s) : 2 channels
    Channel positions : Front: L R
    Sampling rate : 48.0 kHz
    Frame rate : 46.875 FPS (1024 spf)
    Compression mode : Lossy
    Stream size : 75.0 MiB (9%)
    Language : English



    ***Hidden content cannot be quoted.***
    [/QUOTE]
     
  13. gilsimars

    gilsimars Member

    Joined:
    Apr 16, 2018
    Messages:
    50
    Likes Received:
    2
    password


     
  14. hausofdexter

    hausofdexter Member

    Joined:
    Apr 16, 2017
    Messages:
    33
    Likes Received:
    1
    thanks