SDTV Pussycat Dolls - Doll Domination Tour (Live From Glasgow)

Discussion in 'SD Live Performances' started by ciro93dolls, May 12, 2017.

  1. ciro93dolls

    ciro93dolls Active Member

    Joined:
    Sep 22, 2014
    Messages:
    153
    Likes Received:
    149
    [​IMG]
    Format : mobi
    Codec ID : mobi (mobi/avc1/mp42/isom)
    File size : 864 MiB
    Duration : 1 h 34 min
    Overall bit rate mode : Variable
    Overall bit rate : 1 285 kb/s

    Video
    ID : 1
    Format : AVC
    Format/Info : Advanced Video Codec
    Format profile : Baseline@L3
    Format settings, CABAC : No
    Format settings, ReFrames : 1 frame
    Format settings, GOP : M=1, N=60
    Codec ID : avc1
    Codec ID/Info : Advanced Video Coding
    Duration : 1 h 34 min
    Bit rate : 1 168 kb/s
    Width : 640 pixels
    Height : 480 pixels
    Display aspect ratio : 4:3
    Frame rate mode : Constant
    Frame rate : 29.970 (30000/1001) FPS
    Color space : YUV
    Chroma subsampling : 4:2:0
    Bit depth : 8 bits
    Scan type : Progressive
    Bits/(Pixel*Frame) : 0.127
    Stream size : 786 MiB (91%)
    Language : English

    Audio
    ID : 2
    Format : AAC
    Format/Info : Advanced Audio Codec
    Format profile : LC
    Codec ID : 40
    Duration : 1 h 34 min
    Bit rate mode : Variable
    Bit rate : 111 kb/s
    Channel(s) : 2 channels
    Channel positions : Front: L R
    Sampling rate : 48.0 kHz
    Frame rate : 46.875 FPS (1024 spf)
    Compression mode : Lossy
    Stream size : 75.0 MiB (9%)
    Language : English



    Hidden Content:
    You must reply before you can see the hidden data contained here.
     
  2. Loading...


  3. hanshermann

    hanshermann Well-Known Member Uploader

    Joined:
    Aug 24, 2016
    Messages:
    7,063
    Likes Received:
    11,783
    wahts taht
     
  4. Paulorpaes

    Paulorpaes Member

    Joined:
    Sep 3, 2016
    Messages:
    69
    Likes Received:
    5
    gdndvc
     
  5. zuiderheide

    zuiderheide Well-Known Member

    Joined:
    Nov 18, 2013
    Messages:
    2,567
    Likes Received:
    87
  6. exterminador

    exterminador Well-Known Member

    Joined:
    Jul 3, 2016
    Messages:
    2,454
    Likes Received:
    208
  7. Pedro Correia

    Pedro Correia Well-Known Member

    Joined:
    Apr 17, 2014
    Messages:
    1,361
    Likes Received:
    144
    Thank you so much!
     
  8. sideshow_bob

    sideshow_bob Well-Known Member

    Joined:
    Dec 20, 2013
    Messages:
    3,246
    Likes Received:
    237
    Thank you
     
  9. markjackson

    markjackson Active Member

    Joined:
    Jan 8, 2014
    Messages:
    819
    Likes Received:
    48
    thank you so much!
     
  10. IWNLYD

    IWNLYD Member

    Joined:
    Feb 28, 2017
    Messages:
    269
    Likes Received:
    4
    Thanks
     
  11. Niclove21

    Niclove21 Member

    Joined:
    Sep 2, 2016
    Messages:
    190
    Likes Received:
    19
    Thank you
     
  12. MACHADO

    MACHADO Active Member

    Joined:
    Jun 12, 2017
    Messages:
    550
    Likes Received:
    37
    Gracias
     
  13. lim

    lim Well-Known Member

    Joined:
    Nov 8, 2013
    Messages:
    2,032
    Likes Received:
    76
    thank you
     
  14. waat

    waat Member

    Joined:
    Jan 19, 2015
    Messages:
    474
    Likes Received:
    10
    Thank you so much!
     
  15. nico1234

    nico1234 Member

    Joined:
    Jun 16, 2017
    Messages:
    48
    Likes Received:
    0
    thanks
     
  16. Fonny

    Fonny Member

    Joined:
    Dec 1, 2016
    Messages:
    63
    Likes Received:
    13
    thanks
     
  17. lucas.alexaander

    lucas.alexaander Member

    Joined:
    Aug 29, 2016
    Messages:
    66
    Likes Received:
    14
  18. FreakumBoy

    FreakumBoy Member

    Joined:
    Feb 16, 2015
    Messages:
    142
    Likes Received:
    19
    Thank you so much for sharing this!!!
     
  19. brunolima284

    brunolima284 Member

    Joined:
    May 13, 2017
    Messages:
    419
    Likes Received:
    21
    Obrigado.
     
  20. JUNINHOSZ

    JUNINHOSZ Well-Known Member

    Joined:
    May 23, 2014
    Messages:
    1,994
    Likes Received:
    58
    gracias!
     
  21. anacarolsanchez

    anacarolsanchez Member

    Joined:
    Aug 30, 2017
    Messages:
    100
    Likes Received:
    22
    TKSSS