SDTV Pussycat Dolls - Doll Domination Tour (Live From Dublin)

Discussion in 'SD Live Performances' started by ciro93dolls, May 12, 2017.

  1. ciro93dolls

    ciro93dolls Active Member

    Joined:
    Sep 22, 2014
    Messages:
    153
    Likes Received:
    149
    [​IMG]
    Format : mobi
    Codec ID : mobi (mobi/avc1/mp42/isom)
    File size : 881 MiB
    Duration : 1 h 33 min
    Overall bit rate mode : Variable
    Overall bit rate : 1 311 kb/s

    Video
    ID : 1
    Format : AVC
    Format/Info : Advanced Video Codec
    Format profile : Baseline@L3
    Format settings, CABAC : No
    Format settings, ReFrames : 1 frame
    Format settings, GOP : M=1, N=60
    Codec ID : avc1
    Codec ID/Info : Advanced Video Coding
    Duration : 1 h 33 min
    Bit rate : 1 184 kb/s
    Width : 640 pixels
    Height : 480 pixels
    Display aspect ratio : 4:3
    Frame rate mode : Constant
    Frame rate : 29.970 (30000/1001) FPS
    Color space : YUV
    Chroma subsampling : 4:2:0
    Bit depth : 8 bits
    Scan type : Progressive
    Bits/(Pixel*Frame) : 0.129
    Stream size : 796 MiB (90%)
    Language : English

    Audio
    ID : 2
    Format : AAC
    Format/Info : Advanced Audio Codec
    Format profile : LC
    Codec ID : 40
    Duration : 1 h 33 min
    Bit rate mode : Variable
    Bit rate : 122 kb/s
    Channel(s) : 2 channels
    Channel positions : Front: L R
    Sampling rate : 48.0 kHz
    Frame rate : 46.875 FPS (1024 spf)
    Compression mode : Lossy
    Stream size : 81.9 MiB (9%)
    Language : English





    Hidden Content:
    You must reply before you can see the hidden data contained here.
     
  2. Loading...


  3. hanshermann

    hanshermann Well-Known Member Uploader

    Joined:
    Aug 24, 2016
    Messages:
    7,058
    Likes Received:
    11,782
    wahts taht
     
  4. Pedro Correia

    Pedro Correia Well-Known Member

    Joined:
    Apr 17, 2014
    Messages:
    1,361
    Likes Received:
    144
    Thank you so much!
     
  5. Paulorpaes

    Paulorpaes Member

    Joined:
    Sep 3, 2016
    Messages:
    69
    Likes Received:
    5
    thanksssssss
     
  6. exterminador

    exterminador Well-Known Member

    Joined:
    Jul 3, 2016
    Messages:
    2,454
    Likes Received:
    208
  7. sideshow_bob

    sideshow_bob Well-Known Member

    Joined:
    Dec 20, 2013
    Messages:
    3,246
    Likes Received:
    237
  8. jose.luis.mh

    jose.luis.mh Member

    Joined:
    Nov 3, 2015
    Messages:
    212
    Likes Received:
    13
    thank you
     
  9. markjackson

    markjackson Active Member

    Joined:
    Jan 8, 2014
    Messages:
    819
    Likes Received:
    48
    thank you!
     
  10. Tiago

    Tiago Well-Known Member

    Joined:
    Dec 7, 2013
    Messages:
    2,309
    Likes Received:
    85
    thnaks
     
  11. lim

    lim Well-Known Member

    Joined:
    Nov 8, 2013
    Messages:
    2,032
    Likes Received:
    76
    thank you
     
  12. waat

    waat Member

    Joined:
    Jan 19, 2015
    Messages:
    474
    Likes Received:
    10
    Thank you so much!
     
  13. nico1234

    nico1234 Member

    Joined:
    Jun 16, 2017
    Messages:
    48
    Likes Received:
    0
    thanks
     
  14. mjh13578

    mjh13578 Member

    Joined:
    Dec 7, 2013
    Messages:
    429
    Likes Received:
    13
    Thank you!:victory:
     
  15. FreakumBoy

    FreakumBoy Member

    Joined:
    Feb 16, 2015
    Messages:
    142
    Likes Received:
    19
    Thank you so much for sharing this!!!
     
  16. Amauri Luiz

    Amauri Luiz Well-Known Member

    Joined:
    Jan 14, 2014
    Messages:
    1,980
    Likes Received:
    80
  17. hausofdexter

    hausofdexter Member

    Joined:
    Apr 16, 2017
    Messages:
    34
    Likes Received:
    1
    thanks
     
  18. alterion

    alterion Well-Known Member

    Joined:
    May 7, 2016
    Messages:
    1,171
    Likes Received:
    31