SDTV Pussycat Dolls - Doll Domination Tour (Live From Aberdeen)

Discussion in 'SD Live Performances' started by ciro93dolls, May 12, 2017.

  1. ciro93dolls

    ciro93dolls Active Member

    Joined:
    Sep 22, 2014
    Messages:
    150
    Likes Received:
    142
    [​IMG]


    Format : mobi
    Codec ID : mobi (mobi/avc1/mp42/isom)
    File size : 929MiB
    Duration : 1 o 39 min
    Overall bit rate mode : Variabile
    Overall bit rate : 1.308 kb/s

    Video
    ID : 1
    Format : AVC
    Format/Info : Advanced Video Codec
    Format profile : Baseline@L3
    Format settings, CABAC : No
    Format settings, ReFrames : 1 frame
    Format settings, GOP : M=1, N=60
    Codec ID : avc1
    Codec ID/Info : Advanced Video Coding
    Duration : 1 o 39 min
    Bit rate : 1.193 kb/s
    Width : 640 pixel
    Height : 480 pixel
    Display aspect ratio : 4:3
    Frame rate mode : Costante
    Frame rate : 29,970 (30000/1001) FPS
    Color space : YUV
    Chroma subsampling : 4:2:0
    Bit depth : 8 bit
    Scan type : Progressivo
    Bits/(Pixel*Frame) : 0.130
    Stream size : 847MiB (91%)
    Language : Inglese

    Audio
    ID : 2
    Format : AAC
    Format/Info : Advanced Audio Codec
    Format profile : LC
    Codec ID : 40
    Duration : 1 o 39 min
    Bit rate mode : Variabile
    Bit rate : 111 kb/s
    Channel(s) : 2 canali
    Channel positions : Front: L R
    Sampling rate : 48,0 kHz
    Frame rate : 46,875 FPS (1024 spf)
    Compression mode : Con perdita
    Stream size : 78,5MiB (8%)
    Language : Inglese






    Hidden Content:
    You must reply before you can see the hidden data contained here.
     
    Last edited: May 12, 2017
  2. Loading...


  3. j3xk6y

    j3xk6y Member

    Joined:
    Jul 21, 2014
    Messages:
    111
    Likes Received:
    1
    thank you
     
  4. hanshermann

    hanshermann Well-Known Member Uploader

    Joined:
    Aug 24, 2016
    Messages:
    6,313
    Likes Received:
    9,051
    wahts taht
     
  5. Paulorpaes

    Paulorpaes Member

    Joined:
    Sep 3, 2016
    Messages:
    68
    Likes Received:
    5
  6. exterminador

    exterminador Well-Known Member

    Joined:
    Jul 3, 2016
    Messages:
    2,260
    Likes Received:
    195
  7. sideshow_bob

    sideshow_bob Well-Known Member

    Joined:
    Dec 20, 2013
    Messages:
    3,190
    Likes Received:
    227
    Thanks very much
     
  8. Pedro Correia

    Pedro Correia Well-Known Member

    Joined:
    Apr 17, 2014
    Messages:
    1,195
    Likes Received:
    130
    Thank you very much!
     
  9. markjackson

    markjackson Active Member

    Joined:
    Jan 8, 2014
    Messages:
    668
    Likes Received:
    42
    thank you!
     
  10. maxstock93

    maxstock93 Member

    Joined:
    Sep 21, 2014
    Messages:
    108
    Likes Received:
    9
  11. lastxdance

    lastxdance Active Member

    Joined:
    Dec 13, 2016
    Messages:
    462
    Likes Received:
    26
    Thank you!
     
  12. aturner18

    aturner18 Well-Known Member

    Joined:
    Oct 2, 2014
    Messages:
    1,525
    Likes Received:
    142
    How is there so many videos of this tour
     
  13. Albert90

    Albert90 Active Member

    Joined:
    May 27, 2017
    Messages:
    591
    Likes Received:
    40
    thx bb
     
  14. alterion

    alterion Member

    Joined:
    May 7, 2016
    Messages:
    640
    Likes Received:
    24
  15. Niclove21

    Niclove21 Member

    Joined:
    Sep 2, 2016
    Messages:
    172
    Likes Received:
    18
    Thanks
     
  16. MACHADO

    MACHADO Active Member

    Joined:
    Jun 12, 2017
    Messages:
    498
    Likes Received:
    27
    Gracias
     
  17. lim

    lim Well-Known Member

    Joined:
    Nov 8, 2013
    Messages:
    2,026
    Likes Received:
    76
    thank you
     
  18. waat

    waat Member

    Joined:
    Jan 19, 2015
    Messages:
    439
    Likes Received:
    10
    Thank you!
     
  19. Matheus Borges

    Matheus Borges Active Member

    Joined:
    Oct 20, 2014
    Messages:
    124
    Likes Received:
    66
  20. Tiago

    Tiago Well-Known Member

    Joined:
    Dec 7, 2013
    Messages:
    2,131
    Likes Received:
    77
    thankh
     
  21. migsou

    migsou Member

    Joined:
    Oct 2, 2014
    Messages:
    467
    Likes Received:
    17
    thanx