Pussycat Dolls & A.R.Rahman - Jai Ho HD 1080p

Discussion in 'OTHERS' started by adam dark, Dec 18, 2013.

  1. adam dark

    adam dark Video Music Lover <3 V . I . P.

    Joined:
    Dec 5, 2013
    Messages:
    2,572
    Likes Received:
    4,554
    Pussycat Dolls & A.R.Rahman - Jai Ho HD 1080p

    [​IMG]

    [​IMG]

    [​IMG]

    [​IMG]

    [​IMG]

    [​IMG]

    [​IMG]

    [​IMG]

    [​IMG]

    [​IMG]

    Code:
    General
    Unique ID                      : 244472565438034036145717235320909538264 (0xB7EBB4145ED322F39F6F38C21B5123D8)
    Complete name                 : Pussycat Dolls & A.R.Rahman - Jai Ho.mkv
    Format                         : Matroska
    Format version                 : Version 2
    File size                      : 286 MiB
    Duration                       : 3mn 40s
    Overall bit rate mode          : Variable
    Overall bit rate               : 10.9 Mbps
    Movie name                     : © Magnaris
    Encoded date                   : UTC 2010-07-30 05:18:11
    Writing application            : mkvmerge v3.3.0 ('Language') built on Mar 24 2010 14:59:24
    Writing library                : libebml v0.8.0 + libmatroska v0.9.0
    
    Video
    ID                             : 1
    Format                         : AVC
    Format/Info                    : Advanced Video Codec
    Format profile                 : [email protected]
    Format settings, CABAC         : Yes
    Format settings, ReFrames      : 3 frames
    Codec ID                       : V_MPEG4/ISO/AVC
    Duration                       : 3mn 40s
    Bit rate mode                  : Variable
    Bit rate                       : 10.3 Mbps
    Maximum bit rate               : 25.0 Mbps
    Width                          : 1 920 pixels
    Height                         : 1 080 pixels
    Display aspect ratio           : 16:9
    Frame rate mode                : Constant
    Frame rate                     : 25.000 fps
    Color space                    : YUV
    Chroma subsampling             : 4:2:0
    Bit depth                      : 8 bits
    Scan type                      : Progressive
    Bits/(Pixel*Frame)             : 0.198
    Stream size                    : 270 MiB (94%)
    Title                          : Encoded By Magnaris
    Language                       : English
    Default                        : Yes
    Forced                         : No
    
    Audio
    ID                             : 2
    Format                         : DTS
    Format/Info                    : Digital Theater Systems
    Mode                           : 16
    Format settings, Endianness    : Big
    Codec ID                       : A_DTS
    Duration                       : 3mn 40s
    Bit rate mode                  : Constant
    Bit rate                       : 384 Kbps
    Channel count                  : 2 channels
    Channel positions              : Front: L R
    Sampling rate                  : 48.0 KHz
    Bit depth                      : 16 bits
    Compression mode               : Lossy
    Stream size                    : 10.1 MiB (4%)
    Title                          : DTS 2,0
    Language                       : English
    Default                        : Yes
    Forced                         : No
    Hidden Content:
    You must either reply or click 'Like' to see the hidden information contained here.

    Credit to the original Capper
     
    Last edited: Oct 23, 2014
  2. alex

    alex Well-Known Member

    Joined:
    Nov 21, 2013
    Messages:
    4,538
    Likes Received:
    357
    thanks
     
  3. Cesar

    Cesar Member

    Joined:
    Nov 11, 2013
    Messages:
    413
    Likes Received:
    13
    thanks
     
  4. lucash

    lucash Member

    Joined:
    Nov 25, 2013
    Messages:
    211
    Likes Received:
    14
    thanks
     
  5. ryualviss

    ryualviss Active Member

    Joined:
    Jan 6, 2014
    Messages:
    151
    Likes Received:
    525
    thanks :)
     
  6. Danielrc

    Danielrc Member

    Joined:
    Nov 24, 2013
    Messages:
    81
    Likes Received:
    3
    thank you so mush
     
  7. lifevirgin

    lifevirgin Active Member

    Joined:
    Feb 15, 2014
    Messages:
    366
    Likes Received:
    31
     
  8. suhas89

    suhas89 Member

    Joined:
    Apr 2, 2014
    Messages:
    15
    Likes Received:
    62
    thanks
     
  9. iqson

    iqson Active Member

    Joined:
    Dec 30, 2013
    Messages:
    198
    Likes Received:
    68
    Thanks
     
  10. rashka

    rashka Member

    Joined:
    Apr 8, 2014
    Messages:
    209
    Likes Received:
    7
    thanks
     
  11. Zanx94

    Zanx94 Member

    Joined:
    Nov 21, 2013
    Messages:
    137
    Likes Received:
    7
  12. jakakecu

    jakakecu Member

    Joined:
    Dec 9, 2013
    Messages:
    125
    Likes Received:
    0
    thanks
     
  13. By.YLDz

    By.YLDz Hayley Williams Fan :) Capper

    Joined:
    Oct 7, 2013
    Messages:
    362
    Likes Received:
    3,913
    Thank You ..
     
  14. Binho

    Binho Member

    Joined:
    Apr 9, 2014
    Messages:
    256
    Likes Received:
    4
    thanks
     
  15. hotrockerBD

    hotrockerBD New Member

    Joined:
    Apr 27, 2014
    Messages:
    6
    Likes Received:
    0
  16. hotrockerBD

    hotrockerBD New Member

    Joined:
    Apr 27, 2014
    Messages:
    6
    Likes Received:
    0
  17. Gabriel Teixeira Pinto

    Gabriel Teixeira Pinto Active Member

    Joined:
    Apr 16, 2014
    Messages:
    827
    Likes Received:
    153
  18. kesh1000

    kesh1000 Member

    Joined:
    May 5, 2014
    Messages:
    75
    Likes Received:
    0
  19. picklestrength

    picklestrength Member

    Joined:
    May 19, 2014
    Messages:
    75
    Likes Received:
    0
    Thanks! Love Nicole and The Pussycat Dolls!
     
  20. pablo palormo

    pablo palormo Member

    Joined:
    Oct 27, 2013
    Messages:
    177
    Likes Received:
    2