PSY- Gangnam Style (BridgeHD-1080i-MP2-Olgold)-HDMania

Discussion in 'Bridge HD' started by Olgold, Oct 17, 2016.

  1. Olgold

    Olgold Well-Known Member Capper

    Joined:
    Aug 19, 2015
    Messages:
    436
    Likes Received:
    1,701
    PSY- Gangnam Style
    [​IMG]
    General
    Format : MPEG-TS
    File size : 313 MiB
    Duration : 4 min 6 s
    Overall bit rate mode : Variable
    Overall bit rate : 10.7 Mb/s

    Video
    Format : AVC
    Format/Info : Advanced Video Codec
    Format profile : [email protected]
    Format settings, CABAC : Yes
    Format settings, ReFrames : 4 frames
    Duration : 4 min 6 s
    Bit rate : 9 957 kb/s
    Width : 1 920 pixels
    Height : 1 080 pixels
    Display aspect ratio : 16:9
    Frame rate : 25.000 FPS
    Standard : Component
    Color space : YUV
    Chroma subsampling : 4:2:0
    Bit depth : 8 bits
    Scan type : Interlaced
    Scan type, store method : Separated fields
    Scan order : Top Field First
    Bits/(Pixel*Frame) : 0.192
    Stream size : 292 MiB (93%)
    Color range : Limited

    Audio
    Format : MPEG Audio
    Format version : Version 1
    Format profile : Layer 2
    Duration : 4 min 6 s
    Bit rate mode : Constant
    Bit rate : 192 kb/s
    Channel(s) : 2 channels
    Sampling rate : 48.0 kHz
    Compression mode : Lossy
    Delay relative to video : -4 ms
    Stream size : 5.63 MiB (2%)
    Password: Olgold

    Hidden Content:
    You must reply before you can see the hidden data contained here.
     
  2. CELOBRAZiL

    CELOBRAZiL Well-Known Member Capper V . I . P. Donor

    Joined:
    Oct 2, 2013
    Messages:
    4,063
    Likes Received:
    12,624
    Thank you so much! :)
     
  3. rhea

    rhea Well-Known Member

    Joined:
    Jan 6, 2014
    Messages:
    6,839
    Likes Received:
    746
    thank you so much :)
     
  4. Dreamer

    Dreamer Lana Del Rey ♥ Halsey Capper V . I . P. Uploader

    Joined:
    Dec 4, 2014
    Messages:
    2,875
    Likes Received:
    4,228
    Thanks
     
  5. henryperu77

    henryperu77 Active Member

    Joined:
    Oct 18, 2016
    Messages:
    18
    Likes Received:
    111
  6. DiVenturas

    DiVenturas Well-Known Member

    Joined:
    Oct 21, 2015
    Messages:
    2,736
    Likes Received:
    139
  7. tranmanduy

    tranmanduy Member

    Joined:
    Jan 5, 2017
    Messages:
    172
    Likes Received:
    6
    thank you
     
  8. revilo18

    revilo18 Well-Known Member

    Joined:
    May 26, 2016
    Messages:
    1,876
    Likes Received:
    85
    t
    thankkkk
     
  9. chello21

    chello21 Member

    Joined:
    Aug 5, 2017
    Messages:
    78
    Likes Received:
    0
    thnxs
     
  10. ariyuya

    ariyuya New Member

    Joined:
    Jun 19, 2017
    Messages:
    18
    Likes Received:
    0
    thank you