Psy - Daddy (BIS.HD.1080i.DD5.1).-Crusha

Discussion in 'BIS HD' started by Crusha, Feb 1, 2016.

  1. Crusha

    Crusha Well-Known Member Capper V . I . P.

    Joined:
    Oct 15, 2014
    Messages:
    2,356
    Likes Received:
    2,523
    [​IMG]

    Mediainfo
    General
    ID : 1 (0x1)
    Complete name : C:\Users\felipe\Videos\BIS HD\Psy - Daddy (BIS.HD.1080i.DD5.1).-Crusha.ts
    Format : MPEG-TS
    File size : 106 MiB
    Duration : 3mn 50s
    Overall bit rate mode : Variable
    Overall bit rate : 3 872 Kbps

    Video
    ID : 2027 (0x7EB)
    Menu ID : 802 (0x322)
    Format : AVC
    Format/Info : Advanced Video Codec
    Format profile : [email protected]
    Format settings, CABAC : Yes
    Format settings, ReFrames : 4 frames
    Codec ID : 27
    Duration : 3mn 50s
    Bit rate : 3 293 Kbps
    Width : 1 920 pixels
    Height : 1 080 pixels
    Display aspect ratio : 16:9
    Frame rate : 29.970 fps
    Standard : Component
    Color space : YUV
    Chroma subsampling : 4:2:0
    Bit depth : 8 bits
    Scan type : MBAFF
    Scan order : Top Field First
    Bits/(Pixel*Frame) : 0.053
    Stream size : 90.3 MiB (85%)
    Color range : Limited
    Color primaries : BT.709
    Transfer characteristics : BT.709
    Matrix coefficients : BT.709

    Audio
    ID : 3027 (0xBD3)
    Menu ID : 802 (0x322)
    Format : AC-3
    Format/Info : Audio Coding 3
    Mode extension : CM (complete main)
    Format settings, Endianness : Big
    Codec ID : 6
    Duration : 3mn 50s
    Bit rate mode : Constant
    Bit rate : 384 Kbps
    Channel(s) : 6 channels
    Channel positions : Front: L C R, Side: L R, LFE
    Sampling rate : 48.0 KHz
    Bit depth : 16 bits
    Compression mode : Lossy
    Stream size : 10.5 MiB (10%)
    Language : English

    Hidden Content:
    You must either reply or click 'Like' to see the hidden information contained here.
    Password: c
    rusha
     
    chello21, eks22, UHD4K and 2 others like this.
  2. nigg0re

    nigg0re New Member

    Joined:
    Feb 3, 2016
    Messages:
    18
    Likes Received:
    0
    T
    H
    X
     
  3. Aiden Boy

    Aiden Boy Member

    Joined:
    Feb 23, 2016
    Messages:
    168
    Likes Received:
    6
  4. sandeepgamer

    sandeepgamer New Member

    Joined:
    Oct 22, 2016
    Messages:
    16
    Likes Received:
    1
    thanks
     
  5. music videos

    music videos Well-Known Member

    Joined:
    Jul 5, 2016
    Messages:
    774
    Likes Received:
    943
    thanks
     
  6. NiceBoy

    NiceBoy Member

    Joined:
    May 20, 2016
    Messages:
    232
    Likes Received:
    5
    Many Thanks