Prince Royce - My Angel [Official Video - Furious 7 Soundtrack] [Youtube 1080P]

Discussion in 'SD Live Performances' started by 777josem, Mar 5, 2015.

  1. 777josem

    777josem ProRes 1080p LPCM

    Joined:
    Sep 1, 2014
    Messages:
    3,788
    Likes Received:
    3,641
    [​IMG]

    General
    Complete name : C:\Users\pc\Music\Desktop\Prince Royce - My Angel [Official Video - Furious 7 Soundtrack].mp4
    Format : MPEG-4
    Format profile : Base Media
    Codec ID : isom
    File size : 108 MiB
    Duration : 3mn 43s
    Overall bit rate : 4 036 Kbps
    Writing application : Lavf55.37.101

    Video
    ID : 1
    Format : AVC
    Format/Info : Advanced Video Codec
    Format profile : High@L4.0
    Format settings, CABAC : Yes
    Format settings, ReFrames : 2 frames
    Codec ID : avc1
    Codec ID/Info : Advanced Video Coding
    Duration : 3mn 43s
    Bit rate : 3 777 Kbps
    Width : 1 920 pixels
    Height : 1 080 pixels
    Display aspect ratio : 16:9
    Frame rate mode : Variable
    Frame rate : 23.976 fps
    Minimum frame rate : 23.974 fps
    Maximum frame rate : 23.981 fps
    Color space : YUV
    Chroma subsampling : 4:2:0
    Bit depth : 8 bits
    Scan type : Progressive
    Bits/(Pixel*Frame) : 0.076
    Stream size : 101 MiB (94%)

    Audio
    ID : 2
    Format : AAC
    Format/Info : Advanced Audio Codec
    Format profile : LC
    Codec ID : 40
    Duration : 3mn 43s
    Bit rate mode : Constant
    Bit rate : 254 Kbps
    Channel(s) : 2 channels
    Channel positions : Front: L R
    Sampling rate : 44.1 KHz
    Compression mode : Lossy
    Stream size : 6.76 MiB (6%)

    Hidden Content:
    You must reply before you can see the hidden data contained here.
     
  2. Loading...


  3. David96

    David96 Member

    Joined:
    Feb 9, 2018
    Messages:
    159
    Likes Received:
    0
    Thanks