Prince Royce - Darte Un Beso (Stingrey.Concerts.HD.1080i.DD5.1).-Crusha

Discussion in 'Stingray Concerts HD' started by Crusha, Jul 8, 2015.

  1. Crusha

    Crusha Well-Known Member Capper

    Joined:
    Oct 15, 2014
    Messages:
    2,350
    Likes Received:
    2,284
    [​IMG]

    General
    ID : 1 (0x1)
    Complete name : F:\Prince Royce - Darte Un Beso (Stingrey.Concerts.HD.1080i.DD5.1).-Crusha.ts
    Format : MPEG-TS
    File size : 81.6 MiB
    Duration : 3mn 30s
    Overall bit rate mode : Variable
    Overall bit rate : 3 259 Kbps

    Video
    ID : 2833 (0xB11)
    Menu ID : 1522 (0x5F2)
    Format : AVC
    Format/Info : Advanced Video Codec
    Format profile : [email protected]
    Format settings, CABAC : Yes
    Format settings, ReFrames : 4 frames
    Codec ID : 27
    Duration : 3mn 30s
    Bit rate : 2 710 Kbps
    Width : 1 920 pixels
    Height : 1 080 pixels
    Display aspect ratio : 16:9
    Frame rate : 29.970 fps
    Standard : Component
    Color space : YUV
    Chroma subsampling : 4:2:0
    Bit depth : 8 bits
    Scan type : MBAFF
    Scan order : Top Field First
    Bits/(Pixel*Frame) : 0.044
    Stream size : 67.8 MiB (83%)
    Color range : Limited
    Color primaries : BT.709
    Transfer characteristics : BT.709
    Matrix coefficients : BT.709

    Audio
    ID : 3758 (0xEAE)
    Menu ID : 1522 (0x5F2)
    Format : AC-3
    Format/Info : Audio Coding 3
    Mode extension : CM (complete main)
    Format settings, Endianness : Big
    Codec ID : 6
    Duration : 3mn 30s
    Bit rate mode : Constant
    Bit rate : 384 Kbps
    Channel(s) : 6 channels
    Channel positions : Front: L C R, Side: L R, LFE
    Sampling rate : 48.0 KHz
    Bit depth : 16 bits
    Compression mode : Lossy
    Stream size : 9.61 MiB (12%)
    Language : English

    Password: crusha

    Hidden Content:
    You must either reply or click 'Like' to see the hidden information contained here.
    Cap By Me :)
     
  2. medmami

    medmami New Member

    Joined:
    Oct 19, 2016
    Messages:
    16
    Likes Received:
    0
    ccccccccccccccccccccc
     
  3. looky

    looky Member

    Joined:
    Mar 22, 2017
    Messages:
    182
    Likes Received:
    4
    gracias.
     
  4. DiVenturas

    DiVenturas Well-Known Member

    Joined:
    Oct 21, 2015
    Messages:
    1,568
    Likes Received:
    25