Pop Profiles - Ariana Grande MULTISHOWHD 1080i HDTV DD5.1 H.264 CELOBRAZiL-HDMania

Discussion in 'Documentaries' started by CELOBRAZiL, Jan 5, 2017.

  1. CELOBRAZiL

    CELOBRAZiL Well-Known Member Capper V . I . P. Donor

    Joined:
    Oct 2, 2013
    Messages:
    1,341
    Likes Received:
    3,503
    Pop Profiles - Ariana Grande MULTISHOWHD 1080i HDTV DD5.1 H.264 CELOBRAZiL-HDMania

    [​IMG]


    Format : MPEG-TS
    File size : 1.73 GiB
    Duration : 22mn 20s
    Overall bit rate mode : Variable
    Overall bit rate : 11.1 Mbps

    Video
    ID : 1328 (0x530)
    Menu ID : 542 (0x21E)
    Format : AVC
    Format/Info : Advanced Video Codec
    Format profile : [email protected]
    Format settings, CABAC : Yes
    Format settings, ReFrames : 4 frames
    Codec ID : 27
    Duration : 22mn 20s
    Bit rate : 9 950 Kbps
    Width : 1 920 pixels
    Height : 1 080 pixels
    Display aspect ratio : 16:9
    Frame rate : 29.970 fps
    Standard : Component
    Color space : YUV
    Chroma subsampling : 4:2:0
    Bit depth : 8 bits
    Scan type : MBAFF
    Scan order : Top Field First
    Bits/(Pixel*Frame) : 0.160
    Stream size : 1.55 GiB (90%)
    Color range : Limited
    Color primaries : BT.709
    Transfer characteristics : BT.709
    Matrix coefficients : BT.709

    Audio #1
    ID : 1329 (0x531)
    Menu ID : 542 (0x21E)
    Format : AC-3
    Format/Info : Audio Coding 3
    Mode extension : CM (complete main)
    Format settings, Endianness : Big
    Codec ID : 129
    Duration : 22mn 20s
    Bit rate mode : Constant
    Bit rate : 384 Kbps
    Channel(s) : 6 channels
    Channel positions : Front: L C R, Side: L R, LFE
    Sampling rate : 48.0 KHz
    Bit depth : 16 bits
    Compression mode : Lossy
    Stream size : 61.4 MiB (3%)
    Language : Portuguese

    Audio #2
    ID : 1330 (0x532)
    Menu ID : 542 (0x21E)
    Format : MPEG Audio
    Format version : Version 1
    Format profile : Layer 2
    Mode : Joint stereo
    Mode extension : Intensity Stereo + MS Stereo
    Codec ID : 3
    Duration : 22mn 20s
    Bit rate mode : Constant
    Bit rate : 192 Kbps
    Channel(s) : 2 channels
    Sampling rate : 48.0 KHz
    Compression mode : Lossy
    Stream size : 30.7 MiB (2%)
    Language : English

    Text
    ID : 3292 (0xCDC)
    Menu ID : 542 (0x21E)
    Format : DVB Subtitle
    Codec ID : 6
    Duration : 22mn 21s
    Delay relative to video : -67ms
    Language : leg


    Link(s):
    Hidden Content:
    You must either reply or click 'Like' to see the hidden information contained here.
     
    snowgabb, Merleawe, Snorom6 and 3 others like this.
  2. Loading...


  3. Hyrus

    Hyrus Arianator / Selenator / Victorian / LBS* Donor

    Joined:
    Feb 9, 2015
    Messages:
    1,061
    Likes Received:
    519
    Thanks a lot for the cute Ari !! :)
     
    CELOBRAZiL likes this.
  4. Bouncer

    Bouncer Member

    Joined:
    Jan 5, 2016
    Messages:
    372
    Likes Received:
    7
    tks tks
     
  5. Athos

    Athos Active Member

    Joined:
    Dec 28, 2013
    Messages:
    180
    Likes Received:
    83
    thank you
     
  6. Joe1240

    Joe1240 Well-Known Member

    Joined:
    Apr 3, 2014
    Messages:
    471
    Likes Received:
    334
    Thanks for Ariana.