Pixie Lott - Mama Do (uh oh, uh oh) - LINUS LOVES REMIX VERSION (MTV HD 1080i)

Discussion in 'MTV HD' started by adam dark, Apr 7, 2015.

  1. adam dark

    adam dark Video Music Lover <3 V . I . P.

    Joined:
    Dec 5, 2013
    Messages:
    2,611
    Likes Received:
    4,876
    Pixie Lott - Mama Do (uh oh, uh oh) - LINUS LOVES REMIX VERSION (MTV HD 1080i)

    [​IMG]

    [​IMG]

    [​IMG]

    [​IMG]

    [​IMG]
    Code:
    General
    ID                             : 1 (0x1)
    Complete name                  : Pixie Lott - Mama Do (uh oh, uh oh) - LINUS LOVES REMIX VERSION (MTV HD) HD-1080i.ts
    Format                         : MPEG-TS
    File size                      : 268 MiB
    Duration                       : 3mn 21s
    Overall bit rate mode          : Variable
    Overall bit rate               : 11.1 Mbps
    
    Video
    ID                             : 2915 (0xB63)
    Menu ID                        : 1 (0x1)
    Format                         : AVC
    Format/Info                    : Advanced Video Codec
    Format profile                 : [email protected]
    Format settings, CABAC         : Yes
    Format settings, ReFrames      : 4 frames
    Codec ID                       : 27
    Duration                       : 3mn 21s
    Bit rate                       : 10.2 Mbps
    Width                          : 1 920 pixels
    Height                         : 1 080 pixels
    Display aspect ratio           : 16:9
    Frame rate                     : 25.000 fps
    Color space                    : YUV
    Chroma subsampling             : 4:2:0
    Bit depth                      : 8 bits
    Scan type                      : Interlaced
    Scan order                     : Top Field First
    Bits/(Pixel*Frame)             : 0.197
    Stream size                    : 245 MiB (92%)
    Color primaries                : BT.709
    Transfer characteristics       : BT.709
    Matrix coefficients            : BT.709
    Color range                    : Limited
    
    Audio
    ID                             : 2914 (0xB62)
    Menu ID                        : 1 (0x1)
    Format                         : AC-3
    Format/Info                    : Audio Coding 3
    Mode extension                 : CM (complete main)
    Format settings, Endianness    : Big
    Codec ID                       : 6
    Duration                       : 3mn 21s
    Bit rate mode                  : Constant
    Bit rate                       : 384 Kbps
    Channel(s)                     : 2 channels
    Channel positions              : Front: L R
    Sampling rate                  : 48.0 KHz
    Bit depth                      : 16 bits
    Compression mode               : Lossy
    Stream size                    : 9.24 MiB (3%)
    Language                       : English
    Hidden Content:
    You must either reply or click 'Like' to see the hidden information contained here.
    Credit to the Original Capper

    Here the same version but Resync by me, because the original above is a bit out of sync..

    [​IMG]

    Hidden Content:
    You must either reply or click 'Like' to see the hidden information contained here.
     
  2. Crusha

    Crusha Well-Known Member Capper V . I . P.

    Joined:
    Oct 15, 2014
    Messages:
    2,358
    Likes Received:
    2,626
    thank you very much! :)

    the original version... you have it???

    :D :D
     
  3. adam dark

    adam dark Video Music Lover <3 V . I . P.

    Joined:
    Dec 5, 2013
    Messages:
    2,611
    Likes Received:
    4,876
    As I responded to your request I only have the VOB widescreen version! Sorry!!
     
  4. darren

    darren Member

    Joined:
    May 26, 2014
    Messages:
    96
    Likes Received:
    2
    thanx alot
     
  5. Djodjara

    Djodjara Gwen Fan Capper

    Joined:
    Sep 6, 2014
    Messages:
    825
    Likes Received:
    1,496
    thank you adam a lot :)
     
  6. rhea

    rhea Well-Known Member

    Joined:
    Jan 6, 2014
    Messages:
    6,839
    Likes Received:
    746
    thank you so much!
     
  7. adam dark

    adam dark Video Music Lover <3 V . I . P.

    Joined:
    Dec 5, 2013
    Messages:
    2,611
    Likes Received:
    4,876
    you're welcome CELO :)
     
  8. adam dark

    adam dark Video Music Lover <3 V . I . P.

    Joined:
    Dec 5, 2013
    Messages:
    2,611
    Likes Received:
    4,876
    it's a pleasure friend :)
     
  9. adam dark

    adam dark Video Music Lover <3 V . I . P.

    Joined:
    Dec 5, 2013
    Messages:
    2,611
    Likes Received:
    4,876
    you're welcome guys!
     
  10. tf135

    tf135 Well-Known Member

    Joined:
    Nov 14, 2014
    Messages:
    2,417
    Likes Received:
    150
    thank you
     
  11. Dfrazzer

    Dfrazzer Super Moderator Staff Member Super Moderator Capper V . I . P. Donor

    Joined:
    Nov 4, 2013
    Messages:
    4,794
    Likes Received:
    10,430
    Thanks I've been looking for this.
     
  12. adam dark

    adam dark Video Music Lover <3 V . I . P.

    Joined:
    Dec 5, 2013
    Messages:
    2,611
    Likes Received:
    4,876
    you're welcome anytime "Dfrazzer" :)
     
  13. marco desolo

    marco desolo Member

    Joined:
    Dec 21, 2014
    Messages:
    62
    Likes Received:
    3
     
  14. Vinny

    Vinny Well-Known Member

    Joined:
    Dec 26, 2013
    Messages:
    3,592
    Likes Received:
    27
    Thanks! ;D
     
  15. Kells

    Kells Member

    Joined:
    Oct 26, 2015
    Messages:
    51
    Likes Received:
    0
    nice! thanks
     
  16. JSmoove

    JSmoove Member

    Joined:
    Nov 27, 2013
    Messages:
    78
    Likes Received:
    1
    thanks!
     
  17. bugmenot

    bugmenot Member

    Joined:
    Nov 17, 2016
    Messages:
    272
    Likes Received:
    6
    Thanks!
     
  18. awesom3

    awesom3 New Member

    Joined:
    Aug 3, 2015
    Messages:
    17
    Likes Received:
    0
    Thanks.
     
  19. Daniel Leite

    Daniel Leite Member

    Joined:
    Feb 18, 2017
    Messages:
    32
    Likes Received:
    5
    I love it, thx <3
    Pixie Lott - Mama Do (uh oh, uh oh) - LINUS LOVES REMIX VERSION (MTV HD 1080i)

    [​IMG]

    [​IMG]

    [​IMG]

    [​IMG]

    [​IMG]
    Code:
    General
    ID                             : 1 (0x1)
    Complete name                  : Pixie Lott - Mama Do (uh oh, uh oh) - LINUS LOVES REMIX VERSION (MTV HD) HD-1080i.ts
    Format                         : MPEG-TS
    File size                      : 268 MiB
    Duration                       : 3mn 21s
    Overall bit rate mode          : Variable
    Overall bit rate               : 11.1 Mbps
    
    Video
    ID                             : 2915 (0xB63)
    Menu ID                        : 1 (0x1)
    Format                         : AVC
    Format/Info                    : Advanced Video Codec
    Format profile                 : [email protected]
    Format settings, CABAC         : Yes
    Format settings, ReFrames      : 4 frames
    Codec ID                       : 27
    Duration                       : 3mn 21s
    Bit rate                       : 10.2 Mbps
    Width                          : 1 920 pixels
    Height                         : 1 080 pixels
    Display aspect ratio           : 16:9
    Frame rate                     : 25.000 fps
    Color space                    : YUV
    Chroma subsampling             : 4:2:0
    Bit depth                      : 8 bits
    Scan type                      : Interlaced
    Scan order                     : Top Field First
    Bits/(Pixel*Frame)             : 0.197
    Stream size                    : 245 MiB (92%)
    Color primaries                : BT.709
    Transfer characteristics       : BT.709
    Matrix coefficients            : BT.709
    Color range                    : Limited
    
    Audio
    ID                             : 2914 (0xB62)
    Menu ID                        : 1 (0x1)
    Format                         : AC-3
    Format/Info                    : Audio Coding 3
    Mode extension                 : CM (complete main)
    Format settings, Endianness    : Big
    Codec ID                       : 6
    Duration                       : 3mn 21s
    Bit rate mode                  : Constant
    Bit rate                       : 384 Kbps
    Channel(s)                     : 2 channels
    Channel positions              : Front: L R
    Sampling rate                  : 48.0 KHz
    Bit depth                      : 16 bits
    Compression mode               : Lossy
    Stream size                    : 9.24 MiB (3%)
    Language                       : English
    ***Hidden content cannot be quoted.***

    Credit to the Original Capper

    Here the same version but Resync by me, because the original above is a bit out of sync..

    [​IMG]

    ***Hidden content cannot be quoted.***
    [/QUOTE]
     
  20. mjjmusic

    mjjmusic Member

    Joined:
    Feb 4, 2017
    Messages:
    96
    Likes Received:
    2
    never seen this version, gotta check it out, thanks
     
    adam dark likes this.