Pixie Lott - Break Up Song [Master 1080p]

Discussion in 'MASTER & MASTER RIP' started by DETOX, Jun 22, 2015.

  1. DETOX

    DETOX Well-Known Member V . I . P. Uploader

    Joined:
    Feb 20, 2014
    Messages:
    2,766
    Likes Received:
    14,224
    [​IMG]
    Code:
    General
    Complete name                            : Pixie Lott - Break Up Song [Master 1080p].mov
    Format                                   : MPEG-4
    Format profile                           : QuickTime
    Codec ID                                 : qt
    File size                                : 935 MiB
    Duration                                 : 3mn 44s
    Overall bit rate mode                    : Variable
    Overall bit rate                         : 34.9 Mbps
    Encoded date                             : UTC 2015-05-30 12:14:25
    Tagged date                              : UTC 2015-05-30 12:14:39
    Writing library                          : Apple QuickTime
    
    Video
    ID                                       : 2
    Format                                   : apco
    Codec ID                                 : apco
    Duration                                 : 3mn 44s
    Bit rate mode                            : Variable
    Bit rate                                 : 33.3 Mbps
    Width                                    : 1 920 pixels
    Height                                   : 1 080 pixels
    Display aspect ratio                     : 16:9
    Frame rate mode                          : Constant
    Frame rate                               : 25.000 fps
    Bits/(Pixel*Frame)                       : 0.643
    Stream size                              : 893 MiB (95%)
    Language                                 : English
    Encoded date                             : UTC 2015-05-30 12:14:25
    Tagged date                              : UTC 2015-05-30 12:14:39
    
    Audio
    ID                                       : 1
    Format                                   : PCM
    Format settings, Endianness              : Big
    Format settings, Sign                    : Signed
    Codec ID                                 : twos
    Duration                                 : 3mn 44s
    Bit rate mode                            : Constant
    Bit rate                                 : 1 536 Kbps
    Channel(s)                               : 2 channels
    Channel positions                        : Front: L R
    Sampling rate                            : 48.0 KHz
    Bit depth                                : 16 bits
    Stream size                              : 41.1 MiB (4%)
    Language                                 : English
    Encoded date                             : UTC 2015-05-30 12:14:25
    Tagged date                              : UTC 2015-05-30 12:14:39
    Hidden Content:
    You must reply before you can see the hidden data contained here.
     
    Last edited: Jun 22, 2015
  2. Loading...


  3. tf135

    tf135 Well-Known Member

    Joined:
    Nov 14, 2014
    Messages:
    1,608
    Likes Received:
    90
    thank you
     
  4. krest

    krest Member

    Joined:
    May 31, 2015
    Messages:
    210
    Likes Received:
    2
    thank you!!!!!!
     
  5. rhea

    rhea Well-Known Member

    Joined:
    Jan 6, 2014
    Messages:
    5,300
    Likes Received:
    253
    thank you so much!
     
  6. alex

    alex Well-Known Member

    Joined:
    Nov 21, 2013
    Messages:
    4,507
    Likes Received:
    337
    Thank you
     
  7. zidris

    zidris Member

    Joined:
    Aug 17, 2014
    Messages:
    127
    Likes Received:
    2
    Pixie Lott - Break Up Song
     
  8. SKYLEX

    SKYLEX Member

    Joined:
    Jan 1, 2016
    Messages:
    97
    Likes Received:
    0
    thanks
     
  9. Eddie Solo

    Eddie Solo Member

    Joined:
    Oct 16, 2013
    Messages:
    312
    Likes Received:
    11
    thank you
     
  10. cb30uk

    cb30uk Member

    Joined:
    Apr 24, 2015
    Messages:
    212
    Likes Received:
    1
    thanks
     
  11. tenfour

    tenfour Member

    Joined:
    Dec 22, 2015
    Messages:
    299
    Likes Received:
    8
    Fantastic, thank you!
     
  12. multimediafm

    multimediafm Well-Known Member Donor

    Joined:
    Mar 27, 2014
    Messages:
    8,328
    Likes Received:
    343
    Thanks :)
    Pixie Lott - Break Up Song [Master 1080p]
     
  13. sideshow_bob

    sideshow_bob Well-Known Member

    Joined:
    Dec 20, 2013
    Messages:
    2,424
    Likes Received:
    122
  14. shunic

    shunic Member

    Joined:
    Feb 13, 2016
    Messages:
    74
    Likes Received:
    0
    Thank you :)
     
  15. Benjo4Ever

    Benjo4Ever Active Member

    Joined:
    Aug 29, 2016
    Messages:
    213
    Likes Received:
    82
    Perfect!
     
  16. zuluka

    zuluka Member

    Joined:
    Jul 9, 2016
    Messages:
    367
    Likes Received:
    4
    thanks!
     
  17. xavier777

    xavier777 Active Member

    Joined:
    Aug 29, 2016
    Messages:
    366
    Likes Received:
    27
    Thanks
     
  18. alan2014

    alan2014 Member

    Joined:
    Mar 24, 2014
    Messages:
    152
    Likes Received:
    0
  19. kana3245

    kana3245 Member

    Joined:
    Aug 15, 2016
    Messages:
    205
    Likes Received:
    4
    thank you