Pitty - Mascara (Live) (Bis.HD.1080i.DD5.1).-Crusha

Discussion in 'BIS HD' started by Crusha, Jun 24, 2015.

  1. Crusha

    Crusha Well-Known Member Capper

    Joined:
    Oct 15, 2014
    Messages:
    2,349
    Likes Received:
    2,074
    [​IMG]
    [​IMG]
    [​IMG]

    General
    ID : 1 (0x1)
    Complete name : Pitty - Mascara (Bis.HD.1080i.DD5.1).-Crusha.ts
    Format : MPEG-TS
    File size : 174 MiB
    Duration : 5mn 26s
    Overall bit rate mode : Variable
    Overall bit rate : 4 454 Kbps

    Video
    ID : 2027 (0x7EB)
    Menu ID : 802 (0x322)
    Format : AVC
    Format/Info : Advanced Video Codec
    Format profile : [email protected]
    Format settings, CABAC : Yes
    Format settings, ReFrames : 4 frames
    Codec ID : 27
    Duration : 5mn 26s
    Bit rate : 3 846 Kbps
    Width : 1 920 pixels
    Height : 1 080 pixels
    Display aspect ratio : 16:9
    Frame rate : 29.970 fps
    Standard : Component
    Color space : YUV
    Chroma subsampling : 4:2:0
    Bit depth : 8 bits
    Scan type : MBAFF
    Scan order : Top Field First
    Bits/(Pixel*Frame) : 0.062
    Stream size : 150 MiB (86%)
    Color primaries : BT.709
    Transfer characteristics : BT.709
    Matrix coefficients : BT.709
    Color range : Limited

    Audio
    ID : 3027 (0xBD3)
    Menu ID : 802 (0x322)
    Format : AC-3
    Format/Info : Audio Coding 3
    Mode extension : CM (complete main)
    Format settings, Endianness : Big
    Codec ID : 6
    Duration : 5mn 26s
    Bit rate mode : Constant
    Bit rate : 384 Kbps
    Channel(s) : 6 channels
    Channel positions : Front: L C R, Side: L R, LFE
    Sampling rate : 48.0 KHz
    Bit depth : 16 bits
    Compression mode : Lossy
    Stream size : 15.0 MiB (9%)
    Language : English

    Hidden Content:
    You must either reply or click 'Like' to see the hidden information contained here.
    Password:

    Cap by ME :)
     
    Ree, thiagodema, rhea and 1 other person like this.
  2. thiagodema

    thiagodema Well-Known Member

    Joined:
    Jan 19, 2014
    Messages:
    693
    Likes Received:
    364
    tanks for job.
     
  3. brian182

    brian182 Well-Known Member

    Joined:
    Oct 14, 2013
    Messages:
    1,588
    Likes Received:
    40
    thanks!! lol
     
  4. Pedro Correia

    Pedro Correia Active Member

    Joined:
    Apr 17, 2014
    Messages:
    519
    Likes Received:
    46
    Obrigado!
     
    yavar likes this.
  5. yavar

    yavar New Member

    Joined:
    Nov 22, 2016
    Messages:
    5
    Likes Received:
    0
    É Pitty na veia!