WEB-RiP Pitty - A Menina Dança (Youtube-1080p)

Discussion in 'YOUTUBE' started by markitomg, Apr 15, 2019.

  1. markitomg

    markitomg Well-Known Member

    Joined:
    May 24, 2016
    Messages:
    1,445
    Likes Received:
    717
    Request by @Pedro Correia

    [​IMG]

    Code:
    Format                         : MPEG-4
    Format profile                 : Base Media
    Codec ID                       : isom
    File size                      : 70.7 MiB
    Duration                       : 3mn 49s
    Overall bit rate               : 2 586 Kbps
    Writing application            : Lavf56.40.101
    
    Video
    ID                             : 1
    Format                         : AVC
    Format/Info                    : Advanced Video Codec
    Format profile                 : High@L4.0
    Format settings, CABAC         : Yes
    Format settings, ReFrames      : 3 frames
    Codec ID                       : avc1
    Codec ID/Info                  : Advanced Video Coding
    Duration                       : 3mn 49s
    Bit rate                       : 2 455 Kbps
    Width                          : 1 920 pixels
    Height                         : 1 080 pixels
    Display aspect ratio           : 16:9
    Frame rate mode                : Variable
    Frame rate                     : 23.976 fps
    Minimum frame rate             : 23.974 fps
    Maximum frame rate             : 90 000.000 fps
    Color space                    : YUV
    Chroma subsampling             : 4:2:0
    Bit depth                      : 8 bits
    Scan type                      : Progressive
    Bits/(Pixel*Frame)             : 0.049
    Stream size                    : 67.1 MiB (95%)
    Color primaries                : BT.709
    Transfer characteristics       : BT.709
    Matrix coefficients            : BT.709
    
    Audio
    ID                             : 2
    Format                         : AAC
    Format/Info                    : Advanced Audio Codec
    Format profile                 : LC
    Codec ID                       : 40
    Duration                       : 3mn 49s
    Bit rate mode                  : Constant
    Bit rate                       : 126 Kbps
    Channel(s)                     : 2 channels
    Channel positions              : Front: L R
    Sampling rate                  : 44.1 KHz
    Compression mode               : Lossy
    Stream size                    : 3.43 MiB (5%)
    Hidden Content:
    You must reply before you can see the hidden data contained here.