Pitbull Feat. Fifth Harmony - Por Favor VH1HD 1080i HDTV DD2.0 H.264 CELOBRAZiL-HDMania

Discussion in 'VH1 HD' started by CELOBRAZiL, Jan 12, 2018.

  1. CELOBRAZiL

    CELOBRAZiL Well-Known Member Capper V . I . P. Donor

    Joined:
    Oct 2, 2013
    Messages:
    5,177
    Likes Received:
    16,370
    Pitbull Feat. Fifth Harmony - Por Favor VH1HD 1080i HDTV DD2.0 H.264 CELOBRAZiL-HDMania

    [​IMG]



    Format : MPEG-TS
    File size : 142 MiB
    Duration : 3mn 26s
    Overall bit rate mode : Variable
    Overall bit rate : 5 772 Kbps

    Video
    ID : 5408 (0x1520)
    Menu ID : 5416 (0x1528)
    Format : AVC
    Format/Info : Advanced Video Codec
    Format profile : High@L4
    Format settings, CABAC : Yes
    Format settings, ReFrames : 3 frames
    Codec ID : 27
    Duration : 3mn 28s
    Bit rate : 5 099 Kbps
    Width : 1 920 pixels
    Height : 1 080 pixels
    Display aspect ratio : 16:9
    Frame rate : 29.970 fps
    Color space : YUV
    Chroma subsampling : 4:2:0
    Bit depth : 8 bits
    Scan type : MBAFF
    Scan order : Top Field First
    Bits/(Pixel*Frame) : 0.082
    Stream size : 127 MiB (89%)

    Audio
    ID : 5409 (0x1521)
    Menu ID : 5416 (0x1528)
    Format : AC-3
    Format/Info : Audio Coding 3
    Mode extension : CM (complete main)
    Format settings, Endianness : Big
    Codec ID : 129
    Duration : 3mn 28s
    Bit rate mode : Constant
    Bit rate : 384 Kbps
    Channel(s) : 2 channels
    Channel positions : Front: L R
    Sampling rate : 48.0 KHz
    Bit depth : 16 bits
    Compression mode : Lossy
    Stream size : 9.56 MiB (7%)
    Language : English

    Link(s):
    Hidden Content:
    You must either reply or click 'Like' to see the hidden information contained here.
     
  2. Loading...


  3. CELOBRAZiL

    CELOBRAZiL Well-Known Member Capper V . I . P. Donor

    Joined:
    Oct 2, 2013
    Messages:
    5,177
    Likes Received:
    16,370
  4. Thassyo

    Thassyo Well-Known Member

    Joined:
    Oct 9, 2013
    Messages:
    2,809
    Likes Received:
    1,264
    Thanks!
     
    CELOBRAZiL likes this.
  5. Zatimi

    Zatimi Active Member

    Joined:
    Aug 27, 2014
    Messages:
    842
    Likes Received:
    196
    Thanks this would be awesome :)
     
    CELOBRAZiL likes this.
  6. rhea

    rhea Well-Known Member

    Joined:
    Jan 6, 2014
    Messages:
    7,812
    Likes Received:
    993
    thank you :)
     
    CELOBRAZiL likes this.
  7. jonathan joel 97

    jonathan joel 97 Sasuke

    Joined:
    Oct 1, 2015
    Messages:
    318
    Likes Received:
    229
    Thanks a lot :)
     
    CELOBRAZiL likes this.
  8. rvden

    rvden Well-Known Member

    Joined:
    Apr 9, 2017
    Messages:
    519
    Likes Received:
    366
    Thank you!
     
    CELOBRAZiL likes this.
  9. Lucky

    Lucky Active Member

    Joined:
    Sep 26, 2016
    Messages:
    520
    Likes Received:
    47
    thanks
     
    CELOBRAZiL likes this.
  10. jayananda

    jayananda Active Member

    Joined:
    Jan 14, 2015
    Messages:
    932
    Likes Received:
    249
    Thank You
     
    CELOBRAZiL likes this.
  11. amir

    amir Member

    Joined:
    Nov 30, 2013
    Messages:
    154
    Likes Received:
    14
    thanks much
     
    CELOBRAZiL likes this.