Pitbull feat.Christina Aguilera - Feel This Moment (MTVBase-1080i-DD2.0)-Olgold

Discussion in 'MTV BASE' started by Olgold, Aug 27, 2015.

  1. Olgold

    Olgold Well-Known Member Capper

    Joined:
    Aug 19, 2015
    Messages:
    436
    Likes Received:
    1,651
    [​IMG]
    General
    Format : MPEG-TS
    File size : 241 MiB
    Duration : 3mn 46s
    Overall bit rate mode : Variable
    Overall bit rate : 8 923 Kbps

    Video
    Format : AVC
    Format/Info : Advanced Video Codec
    Format profile : [email protected]
    Format settings, CABAC : Yes
    Format settings, ReFrames : 4 frames
    Duration : 3mn 46s
    Bit rate : 8 224 Kbps
    Width : 1 920 pixels
    Height : 1 080 pixels
    Display aspect ratio : 16:9
    Frame rate : 25.000 fps
    Standard : Component
    Color space : YUV
    Chroma subsampling : 4:2:0
    Bit depth : 8 bits
    Scan type : MBAFF
    Scan order : Top Field First
    Bits/(Pixel*Frame) : 0.159
    Stream size : 222 MiB (92%)
    Color range : Limited

    Audio
    Format : AC-3
    Format/Info : Audio Coding 3
    Mode extension : CM (complete main)
    Format settings, Endianness : Big
    Duration : 3mn 46s
    Bit rate mode : Constant
    Bit rate : 256 Kbps
    Channel(s) : 2 channels
    Channel positions : Front: L R
    Sampling rate : 48.0 KHz
    Compression mode : Lossy
    Delay relative to video : 140ms
    Stream size : 6.91 MiB (3%)
    Language : French

    Hidden Content:
    You must reply before you can see the hidden data contained here.
     
    Dreamer, rhea, 777josem and 1 other person like this.
  2. 777josem

    777josem ProRes 1080p LPCM V . I . P. Uploader

    Joined:
    Sep 1, 2014
    Messages:
    3,346
    Likes Received:
    2,482
    Thank you so much!
     
  3. rhea

    rhea Well-Known Member

    Joined:
    Jan 6, 2014
    Messages:
    6,213
    Likes Received:
    516
    thank you so much :)
     
  4. MaggieS

    MaggieS Active Member

    Joined:
    Sep 19, 2014
    Messages:
    990
    Likes Received:
    42
     
  5. Crusha

    Crusha Well-Known Member Capper

    Joined:
    Oct 15, 2014
    Messages:
    2,350
    Likes Received:
    2,415
    thank you
     
  6. RUS22877773

    RUS22877773 Member

    Joined:
    Jan 7, 2016
    Messages:
    101
    Likes Received:
    1
    Thank you
     
  7. Dreamer

    Dreamer Lana Del Rey ♥ Capper V . I . P. Uploader

    Joined:
    Dec 4, 2014
    Messages:
    2,686
    Likes Received:
    3,364
    Thank you so much! :)
     
  8. Pavulon

    Pavulon Well-Known Member

    Joined:
    Mar 22, 2016
    Messages:
    2,354
    Likes Received:
    197
    thank u
     
  9. ivko02

    ivko02 Member

    Joined:
    Jun 20, 2016
    Messages:
    148
    Likes Received:
    2
    thanks
     
  10. revilo18

    revilo18 Well-Known Member

    Joined:
    May 26, 2016
    Messages:
    1,660
    Likes Received:
    75
    THANKKK
     
  11. looky

    looky Member

    Joined:
    Mar 22, 2017
    Messages:
    182
    Likes Received:
    4
    gracias.
     
  12. DiVenturas

    DiVenturas Well-Known Member

    Joined:
    Oct 21, 2015
    Messages:
    2,535
    Likes Received:
    87
  13. hanshermann

    hanshermann Well-Known Member

    Joined:
    Aug 24, 2016
    Messages:
    4,164
    Likes Received:
    942
    wahts taht