Pink - Just Like a Pill (MTV.Live.HD.1080i.DD5.1)

Discussion in 'MTV LIVE HD' started by Crusha, May 14, 2015.

  1. Crusha

    Crusha Well-Known Member Capper

    Joined:
    Oct 15, 2014
    Messages:
    2,350
    Likes Received:
    2,131
    [​IMG]

    General
    ID : 1 (0x1)
    Complete name : C:\Users\SONGOKU\Videos\Mis grabaciones PVR\Pink - Just Like a Pill (MTV.Live.HD.1080i.DD5.1).ts
    Format : MPEG-TS
    File size : 88.6 MiB
    Duration : 3mn 57s
    Overall bit rate mode : Variable
    Overall bit rate : 3 127 Kbps

    Video
    ID : 2755 (0xAC3)
    Menu ID : 855 (0x357)
    Format : AVC
    Format/Info : Advanced Video Codec
    Format profile : High@L4.0
    Format settings, CABAC : Yes
    Format settings, ReFrames : 4 frames
    Format settings, GOP : M=8, N=32
    Codec ID : 27
    Duration : 3mn 57s
    Bit rate : 2 584 Kbps
    Width : 1 920 pixels
    Height : 1 080 pixels
    Display aspect ratio : 16:9
    Frame rate : 29.970 fps
    Standard : Component
    Color space : YUV
    Chroma subsampling : 4:2:0
    Bit depth : 8 bits
    Scan type : MBAFF
    Scan order : Top Field First
    Bits/(Pixel*Frame) : 0.042
    Stream size : 73.1 MiB (83%)
    Color primaries : BT.709
    Transfer characteristics : BT.709
    Matrix coefficients : BT.709
    Color range : Limited

    Audio
    ID : 3755 (0xEAB)
    Menu ID : 855 (0x357)
    Format : AC-3
    Format/Info : Audio Coding 3
    Mode extension : CM (complete main)
    Format settings, Endianness : Big
    Codec ID : 6
    Duration : 3mn 57s
    Bit rate mode : Constant
    Bit rate : 384 Kbps
    Channel(s) : 6 channels
    Channel positions : Front: L C R, Side: L R, LFE
    Sampling rate : 48.0 KHz
    Bit depth : 16 bits
    Compression mode : Lossy
    Delay relative to video : -134ms
    Stream size : 10.9 MiB (12%)
    Language : English

    Hidden Content:
    You must either reply or click 'Like' to see the hidden information contained here.
    Password: crusha

    Cap by Me :p
     
    Last edited: May 14, 2015
  2. Loading...


  3. MaggieS

    MaggieS Active Member

    Joined:
    Sep 19, 2014
    Messages:
    925
    Likes Received:
    34
    tnx u:blackheart::blackheart::blackheart:
     
  4. alan

    alan Member

    Joined:
    Jun 27, 2015
    Messages:
    324
    Likes Received:
    7
    Thanks You :)
     
  5. Regis

    Regis Active Member

    Joined:
    Jul 14, 2015
    Messages:
    996
    Likes Received:
    25
    thank you so much!:D
     
  6. HDMjuzik

    HDMjuzik Member

    Joined:
    Feb 4, 2015
    Messages:
    59
    Likes Received:
    2
    thank youu
     
  7. SriMalchik

    SriMalchik Member

    Joined:
    Oct 6, 2015
    Messages:
    37
    Likes Received:
    0
    thanks dude
     
  8. wwepan

    wwepan Member

    Joined:
    Oct 21, 2015
    Messages:
    34
    Likes Received:
    0
    Thank You
     
  9. sebasswift

    sebasswift Member

    Joined:
    Oct 26, 2015
    Messages:
    117
    Likes Received:
    4
  10. J_Pablo

    J_Pablo Active Member

    Joined:
    Nov 27, 2013
    Messages:
    428
    Likes Received:
    60
    Offline... thank you anyway
     
  11. sebasswift

    sebasswift Member

    Joined:
    Oct 26, 2015
    Messages:
    117
    Likes Received:
    4
    THANK YOU
     
  12. Pavulon

    Pavulon Active Member

    Joined:
    Mar 22, 2016
    Messages:
    1,034
    Likes Received:
    11
    thanks
     
  13. maurohachen

    maurohachen Member

    Joined:
    Feb 24, 2015
    Messages:
    390
    Likes Received:
    14
    I LOVE SONG
     
  14. maurohachen

    maurohachen Member

    Joined:
    Feb 24, 2015
    Messages:
    390
    Likes Received:
    14
    im alivee!
     
  15. tapions

    tapions Active Member

    Joined:
    Aug 30, 2016
    Messages:
    757
    Likes Received:
    50
    gracias
     
  16. alterion

    alterion Member

    Joined:
    May 7, 2016
    Messages:
    362
    Likes Received:
    10
    thanks