Pink - Get The Party Started (MTVIDOL-1080i-DD2.0-Djodjara)-HDMania

Discussion in 'MTV IDOL' started by Djodjara, Jun 18, 2015.

  1. Djodjara

    Djodjara Gwen Fan Capper

    Joined:
    Sep 6, 2014
    Messages:
    888
    Likes Received:
    1,655
    Pink - Get The Party Started (MTV Idol-1080i-Djodjara)-HDMania

    [​IMG]
    [​IMG]

    General:
    ID : 1 (0x1)
    Format : MPEG-TS
    File size : 188 MiB
    Duration : 3mn 19s
    Overall bit rate mode : Variable
    Overall bit rate : 7 916 Kbps

    Video:
    ID : 310 (0x136)
    Menu ID : 1 (0x1)
    Format : AVC
    Format/Info : Advanced Video Codec
    Format profile : High@L4.0
    Format settings, CABAC : Yes
    Format settings, ReFrames : 4 frames
    Codec ID : 27
    Duration : 3mn 19s
    Bit rate : 7 331 Kbps
    Width : 1 920 pixels
    Height : 1 080 pixels
    Display aspect ratio : 16:9
    Frame rate : 25.000 fps
    Standard : Component
    Color space : YUV
    Chroma subsampling : 4:2:0
    Bit depth : 8 bits
    Scan type : MBAFF
    Scan order : Top Field First
    Bits/(Pixel*Frame) : 0.141
    Stream size : 174 MiB (93%)
    Color primaries : BT.709
    Transfer characteristics : BT.709
    Matrix coefficients : BT.709
    Color range : Limited

    Audio:
    ID : 321 (0x141)
    Menu ID : 1 (0x1)
    Format : AC-3
    Format/Info : Audio Coding 3
    Mode extension : CM (complete main)
    Format settings, Endianness : Big
    Codec ID : 6
    Duration : 3mn 19s
    Bit rate mode : Constant
    Bit rate : 192 Kbps
    Channel(s) : 2 channels
    Channel positions : Front: L R
    Sampling rate : 48.0 KHz
    Bit depth : 16 bits
    Compression mode : Lossy
    Stream size : 4.57 MiB (2%)
    Language : French

    Hidden Content:
    You must reply before you can see the hidden data contained here.
     
  2. Loading...


  3. 777josem

    777josem ProRes 1080p LPCM

    Joined:
    Sep 1, 2014
    Messages:
    3,737
    Likes Received:
    3,242
    :happy:Thank you so much!
     
  4. Dreamer

    Dreamer Lana Del Rey ♥ Halsey ♥ Iggy Azalea Capper V . I . P. Uploader

    Joined:
    Dec 4, 2014
    Messages:
    3,012
    Likes Received:
    5,302
    Thank you
     
  5. MaggieS

    MaggieS Well-Known Member

    Joined:
    Sep 19, 2014
    Messages:
    1,059
    Likes Received:
    55
    tnx u
     
  6. Crusha

    Crusha Well-Known Member Capper V . I . P.

    Joined:
    Oct 15, 2014
    Messages:
    2,358
    Likes Received:
    2,780
    thank you
     
  7. 江雨燃双鱼

    江雨燃双鱼 Active Member

    Joined:
    Apr 5, 2014
    Messages:
    614
    Likes Received:
    45
  8. rhea

    rhea Well-Known Member

    Joined:
    Jan 6, 2014
    Messages:
    7,550
    Likes Received:
    903
    thank you so much :)
     
  9. Zatimi

    Zatimi Active Member

    Joined:
    Aug 27, 2014
    Messages:
    814
    Likes Received:
    174
    thanks a million
     
  10. Vjeans

    Vjeans Well-Known Member V . I . P.

    Joined:
    May 10, 2014
    Messages:
    1,222
    Likes Received:
    3,845
    Thank you so Much!
     
  11. alan

    alan Member

    Joined:
    Jun 27, 2015
    Messages:
    369
    Likes Received:
    13
    Thanks you :)
     
  12. BinhTVT

    BinhTVT Member

    Joined:
    Jun 30, 2015
    Messages:
    239
    Likes Received:
    3
    thank you :D
     
  13. Vinny

    Vinny Well-Known Member

    Joined:
    Dec 26, 2013
    Messages:
    3,781
    Likes Received:
    41
    Thanks! ;D
     
  14. Regis

    Regis Well-Known Member

    Joined:
    Jul 14, 2015
    Messages:
    1,168
    Likes Received:
    39
    thank you so much!:D
     
  15. adam136

    adam136 Member

    Joined:
    Jan 8, 2015
    Messages:
    61
    Likes Received:
    3
    Thank you
     
  16. LLAVE1

    LLAVE1 Member

    Joined:
    Dec 4, 2013
    Messages:
    55
    Likes Received:
    7
    thank you :D
     
  17. arnold

    arnold Member

    Joined:
    Oct 29, 2014
    Messages:
    242
    Likes Received:
    4
    thank you!
     
  18. anbelk

    anbelk New Member

    Joined:
    Oct 12, 2014
    Messages:
    5
    Likes Received:
    0
    thank you!
     
  19. Emazing

    Emazing Member

    Joined:
    Nov 6, 2013
    Messages:
    48
    Likes Received:
    0
    thanks Djodjara
     
  20. furkan

    furkan Member

    Joined:
    Oct 9, 2015
    Messages:
    340
    Likes Received:
    12
    thnsk youuuu
     
  21. HDMjuzik

    HDMjuzik Member

    Joined:
    Feb 4, 2015
    Messages:
    61
    Likes Received:
    2
    thank you so much