Pharrell Williams - Marilyn Monroe (Trace HD-1080i)-Olgold

Discussion in 'TRACE URBAN HD' started by Olgold, Aug 27, 2015.

  1. Olgold

    Olgold Well-Known Member Capper

    Joined:
    Aug 19, 2015
    Messages:
    435
    Likes Received:
    1,484
    [​IMG]
    General
    Format : MPEG-TS
    File size : 262 MiB
    Duration : 4mn 50s
    Overall bit rate mode : Variable
    Overall bit rate : 7 574 Kbps

    Video
    Format : AVC
    Format/Info : Advanced Video Codec
    Format profile : [email protected]
    Format settings, CABAC : Yes
    Format settings, ReFrames : 4 frames
    Duration : 4mn 50s
    Bit rate : 7 006 Kbps
    Width : 1 920 pixels
    Height : 1 080 pixels
    Display aspect ratio : 16:9
    Frame rate : 25.000 fps
    Standard : Component
    Color space : YUV
    Chroma subsampling : 4:2:0
    Bit depth : 8 bits
    Scan type : Interlaced
    Scan order : Top Field First
    Bits/(Pixel*Frame) : 0.135
    Stream size : 242 MiB (93%)
    Color range : Limited

    Audio
    Format : MPEG Audio
    Format version : Version 1
    Format profile : Layer 2
    Duration : 4mn 50s
    Bit rate mode : Constant
    Bit rate : 192 Kbps
    Channel(s) : 2 channels
    Sampling rate : 48.0 KHz
    Compression mode : Lossy
    Delay relative to video : 15ms
    Stream size : 6.64 MiB (3%)
    Language : English

    Hidden Content:
    You must reply before you can see the hidden data contained here.
     
    rhea, 777josem and CELOBRAZiL like this.
  2. Loading...


  3. rhea

    rhea Well-Known Member

    Joined:
    Jan 6, 2014
    Messages:
    5,549
    Likes Received:
    312
    thank you so much :)
     
  4. limonato

    limonato Member

    Joined:
    Dec 1, 2014
    Messages:
    202
    Likes Received:
    3
    thank you
     
  5. meg

    meg Member

    Joined:
    Mar 21, 2016
    Messages:
    150
    Likes Received:
    6
    thanks love U
     
  6. Pavulon

    Pavulon Well-Known Member

    Joined:
    Mar 22, 2016
    Messages:
    1,470
    Likes Received:
    66
    thanks
     
  7. Tommyboy

    Tommyboy Member

    Joined:
    Oct 23, 2016
    Messages:
    476
    Likes Received:
    15
    Thanks
     
  8. lopapata

    lopapata Member

    Joined:
    Jul 22, 2016
    Messages:
    227
    Likes Received:
    4
    thanks
     
  9. zorgs777

    zorgs777 Member

    Joined:
    Feb 18, 2017
    Messages:
    67
    Likes Received:
    0
    thanks
     
  10. seregil

    seregil Member

    Joined:
    Sep 5, 2014
    Messages:
    103
    Likes Received:
    1
    thanks