Phantoms ft. Vanessa Hudgens - Lay With Me (Webrip-4k-thankstome)

Discussion in 'Music Videos' started by thankstome, Jan 7, 2019.

  1. thankstome

    thankstome Well-Known Member

    Joined:
    Feb 6, 2014
    Messages:
    1,086
    Likes Received:
    1,451
    [​IMG]
    Code:
    Format                      : MPEG-4
    Format profile              : Base Media
    Codec ID                    : isom (isom/iso2/avc1/mp41)
    File size                   : 616 MiB
    Duration                    : 3 min 32 s
    Overall bit rate            : 24.3 Mb/s
    Writing application         : Lavf57.71.100
    
    Video
    ID                          : 1
    Format                      : AVC
    Format/Info                 : Advanced Video Codec
    Format profile              : High@L5.2
    Format settings             : CABAC / 5 Ref Frames
    Format settings, CABAC      : Yes
    Format settings, ReFrames   : 5 frames
    Codec ID                    : avc1
    Codec ID/Info               : Advanced Video Coding
    Duration                    : 3 min 32 s
    Bit rate                    : 24.2 Mb/s
    Width                       : 2 880 pixels
    Height                      : 2 160 pixels
    Display aspect ratio        : 4:3
    Frame rate mode             : Constant
    Frame rate                  : 23.976 (24000/1001) FPS
    Color space                 : YUV
    Chroma subsampling          : 4:2:0
    Bit depth                   : 8 bits
    Scan type                   : Progressive
    Bits/(Pixel*Frame)          : 0.162
    Stream size                 : 612 MiB (99%)
    Writing library             : x264 core 155 r0+2917M 0a84d98
    Encoding settings           : cabac=1 / ref=5 / deblock=1:0:0 / analyse=0x3:0x113 / me=hex / subme=8 / psy=1 / psy_rd=1.00:0.00 / mixed_ref=1 / me_range=16 / chroma_me=1 / trellis=2 / 8x8dct=1 / cqm=0 / deadzone=21,11 / fast_pskip=1 / chroma_qp_offset=-2 / threads=48 / lookahead_threads=8 / sliced_threads=0 / nr=0 / decimate=1 / interlaced=0 / bluray_compat=0 / stitchable=1 / constrained_intra=0 / bframes=3 / b_pyramid=2 / b_adapt=2 / b_bias=0 / direct=3 / weightb=1 / open_gop=0 / weightp=2 / keyint=infinite / keyint_min=23 / scenecut=40 / intra_refresh=0 / rc_lookahead=50 / rc=crf / mbtree=1 / crf=20.0 / qcomp=0.60 / qpmin=5 / qpmax=69 / qpstep=4 / vbv_maxrate=24200 / vbv_bufsize=66000 / crf_max=0.0 / nal_hrd=none / filler=0 / ip_ratio=1.40 / aq=1:1.00
    Color range                 : Limited
    Color primaries             : BT.709
    Transfer characteristics    : BT.709
    Matrix coefficients         : BT.709
    Codec configuration box     : avcC
    
    Audio
    ID                          : 2
    Format                      : AAC LC
    Format/Info                 : Advanced Audio Codec Low Complexity
    Codec ID                    : mp4a-40-2
    Duration                    : 3 min 32 s
    Bit rate mode               : Constant
    Bit rate                    : 137 kb/s
    Channel(s)                  : 2 channels
    Channel layout              : L R
    Sampling rate               : 48.0 kHz
    Frame rate                  : 46.875 FPS (1024 SPF)
    Compression mode            : Lossy
    Stream size                 : 3.47 MiB (1%)
    Default                     : Yes
    Alternate group             : 1
    Request by @KevinEleven
    Hidden Content:
    You must reply before you can see the hidden data contained here.
     
    Last edited: Jan 7, 2019
  2. Vinny

    Vinny Well-Known Member

    Joined:
    Dec 26, 2013
    Messages:
    4,190
    Likes Received:
    55
    Thanks
     
  3. KevinEleven

    KevinEleven total nerd for Vanessa Hudgens, among other things

    Joined:
    Apr 11, 2017
    Messages:
    49
    Likes Received:
    10
    thank you so much!!!
     
  4. Tiago

    Tiago Well-Known Member

    Joined:
    Dec 7, 2013
    Messages:
    2,627
    Likes Received:
    122
    thanks
     
  5. MarkHorax

    MarkHorax Well-Known Member

    Joined:
    Dec 10, 2016
    Messages:
    651
    Likes Received:
    1,049
    Thanks
     
  6. ecrider1000

    ecrider1000 Member

    Joined:
    Jun 25, 2016
    Messages:
    485
    Likes Received:
    18
  7. kalo

    kalo Active Member

    Joined:
    May 25, 2015
    Messages:
    577
    Likes Received:
    25
    thanks
     
  8. submariner9728

    submariner9728 Well-Known Member

    Joined:
    Dec 26, 2014
    Messages:
    1,291
    Likes Received:
    42
  9. knechtler15

    knechtler15 Member

    Joined:
    Jun 16, 2017
    Messages:
    277
    Likes Received:
    4
  10. exterminador

    exterminador Well-Known Member

    Joined:
    Jul 3, 2016
    Messages:
    2,722
    Likes Received:
    239
  11. tn5656

    tn5656 Well-Known Member

    Joined:
    Jan 20, 2017
    Messages:
    4,975
    Likes Received:
    183
    Thank you
     
  12. tenfour

    tenfour Member

    Joined:
    Dec 22, 2015
    Messages:
    558
    Likes Received:
    16
    Thanks!
     
  13. lucash

    lucash Active Member

    Joined:
    Nov 25, 2013
    Messages:
    456
    Likes Received:
    36
    thanks
     
  14. Antony

    Antony Well-Known Member

    Joined:
    Nov 11, 2013
    Messages:
    1,346
    Likes Received:
    254
    thanks x